Быстрее, чем кролики (2013) WEB-DLRip 720p скачать бесплатно торрент

Фильмы высокого разрешения в формате HD
Торрент [ Статус: Проверен ] Скачать Сидеров Личеров Размер
Bystree.chem.kroliki.2013.WEB-DL.720p.mkv.torrent
6 1 3.01 ГБ
Аватара пользователя
admin
Администратор
Администратор
Сообщения: 11037
Зарегистрирован: 13 дек 2013, 01:15
Благодарил (а): 7 раз
Контактная информация:

Быстрее, чем кролики (2013) WEB-DLRip 720p

Сообщение admin » 20 фев 2014, 18:54

Год выпуска: 2013
Производство: Россия, Стрела
Жанр: Комедия
Перевод: Не требуется (русский) | iTunesRussia |
Субтитры: Отсутствуют

Изображение

Режиссер: Дмитрий Дьяченко
Продюсер: Леонид Барац, Ростислав Хаит, Сергей Петрейков
Актеры: Леонид Барац, Александр Демидов, Камиль Ларин, Ростислав Хаит, Игорь Золотовицкий, Екатерина Кузнецова, Артем Смола, Григорий Данцигер, Дмитрий Дибров, Валдис Пельш

Описание фильма:
Трое друзей после бурной вечеринки просыпаются в совершенно незнакомом месте в компании незнакомых людей и пытаются понять, как они здесь оказались, кто все эти люди, и что на самом деле произошло накануне… Что делают и о чем говорят мужчины в такой необычной ситуации?

Примечание: Расширенная версия! Длиннее DVD-шной приблизительно на 7 мин - альтернативная концовка фильма!

Продолжительность: 01:39:11
Качество видео: WEB-DL

Видеокодек: MPEG-4 AVC/H.264
Битрейт видео: 3877 kb/s
Размер кадра: 1280x532
Общее
Уникальный идентификатор : 187588552149971367492301809612229010091 (0x8D203DB0EE14E4728A68B7B4D54562AB)
Полное имя : D:\Раздачи\Bystree.chem.kroliki.2013.WEB-DL.720p.mkv
Формат : Matroska
Версия формата : Version 2
Размер файла : 3,01 Гбайт
Продолжительность : 1 ч. 39 м.
Общий поток : 4348 Кбит/сек
Дата кодирования : UTC 2014-02-19 09:06:00
Программа кодирования : mkvmerge v5.8.0 ('No Sleep / Pillow') built on Sep 2 2012 15:37:04
Библиотека кодирования : libebml v1.2.3 + libmatroska v1.3.0

Видео
Идентификатор : 1
Формат : AVC
Формат/Информация : Advanced Video Codec
Профиль формата : Main@L3.1
Параметр CABAC формата : Нет
Параметр ReFrames формата : 2 кадра
Идентификатор кодека : V_MPEG4/ISO/AVC
Продолжительность : 1 ч. 39 м.
Битрейт : 3877 Кбит/сек
Ширина : 1280 пикселей
Высота : 532 пикселя
Соотношение сторон : 2,40:1
Режим частоты кадров : Постоянный
Частота кадров : 24,000 кадра/сек
Цветовое пространство : YUV
Субдискретизация насыщенности : 4:2:0
Битовая глубина : 8 бит
Тип развёртки : Прогрессивная
Бит/(Пиксели*Кадры) : 0.237
Размер потока : 2,69 Гбайт (89%)
Язык : English
Default : Да
Forced : Нет
Основные цвета : BT.709
Характеристики трансфера : BT.709
Коэффициенты матрицы : BT.709

Аудио
Идентификатор : 2
Формат : AC-3
Формат/Информация : Audio Coding 3
Расширение режима : CM (complete main)
Параметр Endianness формата : Big
Идентификатор кодека : A_AC3
Продолжительность : 1 ч. 39 м.
Вид битрейта : Постоянный
Битрейт : 384 Кбит/сек
Каналы : 6 каналов
Расположение каналов : Front: L C R, Side: L R, LFE
Частота : 48,0 КГц
Битовая глубина : 16 бит
Метод сжатия : С потерями
Размер потока : 272 Мбайт (9%)
Язык : Russian
Default : Да
Forced : Нет

Меню
00:00:00.000 : en:Глава 1
00:06:46.000 : en:Глава 2
00:11:46.000 : en:Глава 3
00:16:47.000 : en:Глава 4
00:21:48.000 : en:Глава 5
00:26:51.000 : en:Глава 6
00:31:52.000 : en:Глава 7
00:36:52.000 : en:Глава 8
00:41:55.000 : en:Глава 9
00:46:56.000 : en:Глава 10
00:51:57.000 : en:Глава 11
00:56:59.000 : en:Глава 12
01:02:08.000 : en:Глава 13
01:07:08.000 : en:Глава 14
01:12:10.000 : en:Глава 15
01:17:10.000 : en:Глава 16
01:22:10.000 : en:Глава 17
01:27:11.000 : en:Глава 18
01:32:19.000 : en:Глава 19

Как скачать!

  • Похожие темы
    Ответы
    Просмотры
    Последнее сообщение

Вернуться в «Фильмы HD»

Кто сейчас на конференции

Сейчас этот форум просматривают: Yandex [Bot] и 4 гостя