Спасти мистера Бэнкса / Saving Mr. Banks (2013) BDRip 1080p | BaibaKo скачать бесплатно торрент

Фильмы высокого разрешения в формате HD
Торрент [ Статус: Проверен ] Скачать Сидеров Личеров Размер
Saving.Mr.Banks.2013.BluRay.1080p.mkv.torrent
289 42 9.84 ГБ
Аватара пользователя
admin
Администратор
Администратор
Сообщения: 11117
Зарегистрирован: 13 дек 2013, 01:15
Благодарил (а): 7 раз
Контактная информация:

Спасти мистера Бэнкса / Saving Mr. Banks (2013) BDRip 1080p | BaibaKo

Сообщение admin » 06 мар 2014, 21:47

Информация о фильме
Название: Спасти мистера Бэнкса
Оригинальное название: Saving Mr. Banks
Год выпуска: 2013
Жанр: Драма, история, биография, музыка
Выпущено: США, Великобритания, Австралия, Walt Disney Pictures, Ruby Films, Essential Media & Entertainment
Режиссер: Джон Ли Хэнкок
В ролях: Эмма Томпсон, Том Хэнкс, Пол Джаматти, Джейсон Шварцман, Колин Фаррелл, Энни Роуз Бакли, Рут Уилсон, Брэдли Уитфорд, Б.Дж. Новак, Лили Бигхем

О фильме: История постановки классического художественного фильма Disney «Мэри Поппинс». Когда Уолт Дисней пообещал своим дочерям снять фильм по их любимой книге, сказке Памелы Трэверс «Мэри Поппинс», он даже не подозревал, что на исполнение этого обещания ему понадобится более двадцати лет. В попытке получить права на экранизацию книги, Уолт столкнулся со своенравной и несговорчивой британской писательницей, которая ни в коем случае не хотела, чтобы ее любимая героиня была «испорчена» голливудским подходом к созданию фильмов. Лишь в начале шестидесятых она согласилась лично приехать в Лос-Анджелес и начать переговоры об экранизации. На протяжении двух недель в 1961 году, пока длились переговоры с Памелой Трэверс, Уолт Дисней перепробовал все уловки. Он презентовал идеи и эскизы к фильму, пытался впечатлить писательницу великолепной музыкой, написанной талантливыми композиторами, братьями Шерман, и даже устраивал экскурсии в Диснейленд — однако Трэверс не шла ни на какие уговоры, и знаменитый кинематографист чуть было не отказался от своего замысла.

Изображение

Файл
Качество: BDRip (1080p)
Видео: MPEG-4 AVC, 9315 Кбит/с, 1920x800
Аудио: Русский (AC3, 6 ch, 384 Кбит/с), английский (DTS, 6 ch, 1510 Кбит/с)
Продолжительность: 02:05:40
Перевод: Профессиональный многоголосый [BaibaKo]
Общее
Уникальный идентификатор : 174334439025326542333669367813329969349 (0x83279776176A0FEFB87A00465370E0C5)
Полное имя : C:Saving.Mr.Banks.2013.BluRay.1080p.DTS.CHD.mkv
Формат : Matroska
Версия формата : Version 2
Размер файла : 9,84 Гбайт
Продолжительность : 2 ч. 5 м.
Общий поток : 11,2 Мбит/сек
Название фильма : Saving.Mr.Banks.2013.BluRay.1080p.DTS.x264-CHD
Дата кодирования : UTC 2014-03-05 17:04:30
Программа кодирования : mkvmerge v6.7.0 ('Back to the Ground') 64bit built on Jan 8 2014 15:10:52
Библиотека кодирования : libebml v1.3.0 + libmatroska v1.4.1

Видео
Идентификатор : 1
Формат : AVC
Формат/Информация : Advanced Video Codec
Профиль формата : High@L4.1
Параметр CABAC формата : Да
Параметр ReFrames формата : 5 кадров
Идентификатор кодека : V_MPEG4/ISO/AVC
Продолжительность : 2 ч. 5 м.
Битрейт : 9315 Кбит/сек
Ширина : 1920 пикселей
Высота : 800 пикселей
Соотношение сторон : 2,40:1
Режим частоты кадров : Постоянный
Частота кадров : 23,976 кадра/сек
Цветовое пространство : YUV
Субдискретизация насыщенности : 4:2:0
Битовая глубина : 8 бит
Тип развёртки : Прогрессивная
Бит/(Пиксели*Кадры) : 0.253
Размер потока : 7,98 Гбайт (81%)
Заголовок : chp@CHD
Библиотека кодирования : x264 core 138 r2356 a1d3d17
Настройки программы : cabac=1 / ref=5 / deblock=1:-3:-3 / analyse=0x3:0x113 / me=umh / subme=10 / psy=1 / psy_rd=1.00:0.05 / mixed_ref=1 / me_range=32 / chroma_me=1 / trellis=2 / 8x8dct=1 / cqm=0 / deadzone=21,11 / fast_pskip=0 / chroma_qp_offset=-2 / threads=18 / lookahead_threads=1 / sliced_threads=0 / nr=0 / decimate=1 / interlaced=0 / bluray_compat=0 / constrained_intra=0 / bframes=5 / b_pyramid=2 / b_adapt=2 / b_bias=0 / direct=3 / weightb=1 / open_gop=0 / weightp=2 / keyint=250 / keyint_min=23 / scenecut=40 / intra_refresh=0 / rc=2pass / mbtree=0 / bitrate=9315 / ratetol=1.0 / qcomp=0.70 / qpmin=0 / qpmax=69 / qpstep=4 / cplxblur=20.0 / qblur=0.5 / ip_ratio=1.40 / pb_ratio=1.30 / aq=2:0.90
Язык : English
Default : Да
Forced : Нет

Аудио #1
Идентификатор : 2
Формат : AC-3
Формат/Информация : Audio Coding 3
Расширение режима : CM (complete main)
Параметр Endianness формата : Big
Идентификатор кодека : A_AC3
Продолжительность : 2 ч. 5 м.
Вид битрейта : Постоянный
Битрейт : 384 Кбит/сек
Каналы : 6 каналов
Расположение каналов : Front: L C R, Side: L R, LFE
Частота : 48,0 КГц
Битовая глубина : 16 бит
Метод сжатия : С потерями
Размер потока : 345 Мбайт (3%)
Язык : Russian
Default : Да
Forced : Нет

Аудио #2
Идентификатор : 3
Формат : DTS
Формат/Информация : Digital Theater Systems
Режим : 16
Параметр Endianness формата : Big
Идентификатор кодека : A_DTS
Продолжительность : 2 ч. 5 м.
Вид битрейта : Постоянный
Битрейт : 1509 Кбит/сек
Каналы : 6 каналов
Расположение каналов : Front: L C R, Side: L R, LFE
Частота : 48,0 КГц
Битовая глубина : 24 бит
Метод сжатия : С потерями
Размер потока : 1,32 Гбайт (13%)
Заголовок : English DTS 5.1 1509Kbps
Язык : English
Default : Нет
Forced : Нет

Как скачать!

  • Похожие темы
    Ответы
    Просмотры
    Последнее сообщение

Вернуться в «Фильмы HD»

Кто сейчас на конференции

Сейчас этот форум просматривают: нет зарегистрированных пользователей и 1 гость