Искатели могил 2 / Grave Encounters 2 (2012) BDRip 720p лицензия скачать бесплатно торрент

Фильмы высокого разрешения в формате HD
Торрент [ Статус: Проверен ] Скачать Сидеров Личеров Размер
Grave.Encounters.2.2012.P.BDRip.720p.m.torrent
42 1 4.67 ГБ
Аватара пользователя
admin
Администратор
Администратор
Сообщения: 11117
Зарегистрирован: 13 дек 2013, 01:15
Благодарил (а): 7 раз
Контактная информация:

Искатели могил 2 / Grave Encounters 2 (2012) BDRip 720p лицензия

Сообщение admin » 08 мар 2014, 19:54

Год выхода: 2012
Жанр: Ужасы
Режиссер: Джон Поликвин
В ролях: Риз Александр, Стефани Беннетт, Джеффри Бауэр-Чепман, Ричард Хэрмон, Хоуи Лаи, Лиэнн Лэпп, Мишель Нил, Шоун С. Филлипс, Дилан Плэйфейр, Шон Роджерсон

О фильме:
В руки к режиссёру-юнцу Алексу попадает фильм ужасов «Искатели могил». Кино не производит на него впечатления, но отношение Алекса меняется, когда ему анонимно присылают странный видеоролик, смахивающий на вырезанную сценку из «Искателей». Заинтересовавшись посланием, Алекс пытается найти создателей хитового ужастика. Тщетность этих попыток наталкивает парня на мысль, что снятое в «Искателях» произошло на самом деле, и авторы фильма мертвы. Продолжая расследование и получая новые доказательства своей теории, Алекс решается на последний шаг: он предлагает своим друзьям забраться в ту самую заброшенную психушку, где снимались «Искатели могил».

Изображение Изображение

Страна: Канада, США / Death Awaits Cinema, Twin Engine Films, Pink Buffalo Films
Продолжительность: 01:38:45
Перевод: Профессиональное (многоголосое) [лицензия]

Формат: MKV
Качество: BDRip 720p [GECKOS]
Видео: 4820 Kb/s, 1280x720
Аудио: Russian: AC3, 448 kb/s (6 ch) / English: DTS, 1536 kb/s (6 ch)
Субтитры: English
Дополнительно: Сохранены оригинальные чаптеры как на Blu-Ray.
General
Unique ID : 211380025422354456535806425620272611219 (0x9F064FE33481B8C8A87997A2EB1B7F93)
Complete name : Grave.Encounters.2.2012.P.BDRip.720p.mkv
Format : Matroska
Format version : Version 2
File size : 4.67 GiB
Duration : 1h 38mn
Overall bit rate : 6 775 Kbps
Encoded date : UTC 2013-03-05 06:10:34
Writing application : mkvmerge v5.2.0 ('I can't explain') built on Dec 18 2011 18:12:03
Writing library : libebml v1.2.3 + libmatroska v1.3.0

Video
ID : 1
Format : AVC
Format/Info : Advanced Video Codec
Format profile : High@L4.1
Format settings, CABAC : Yes
Format settings, ReFrames : 5 frames
Codec ID : V_MPEG4/ISO/AVC
Duration : 1h 38mn
Bit rate : 4 820 Kbps
Width : 1 280 pixels
Height : 720 pixels
Display aspect ratio : 16:9
Frame rate : 23.976 fps
Color space : YUV
Chroma subsampling : 4:2:0
Bit depth : 8 bits
Scan type : Progressive
Bits/(Pixel*Frame) : 0.218
Stream size : 3.23 GiB (69%)
Title : Grave.Encounters.2.2012.720p.BluRay.x264.RoSubbed-GECKOS
Writing library : x264 core 129 r2245 bc13772
Encoding settings : cabac=1 / ref=5 / deblock=1:0:0 / analyse=0x3:0x133 / me=umh / subme=7 / psy=1 / psy_rd=1.00:0.00 / mixed_ref=1 / me_range=16 / chroma_me=1 / trellis=1 / 8x8dct=1 / cqm=0 / deadzone=21,11 / fast_pskip=0 / chroma_qp_offset=-2 / threads=12 / lookahead_threads=2 / sliced_threads=0 / nr=0 / decimate=1 / interlaced=0 / bluray_compat=0 / constrained_intra=0 / bframes=3 / b_pyramid=2 / b_adapt=2 / b_bias=0 / direct=3 / weightb=1 / open_gop=0 / weightp=2 / keyint=250 / keyint_min=23 / scenecut=40 / intra_refresh=0 / rc_lookahead=50 / rc=2pass / mbtree=1 / bitrate=4820 / ratetol=1.0 / qcomp=0.60 / qpmin=0 / qpmax=69 / qpstep=4 / cplxblur=20.0 / qblur=0.5 / ip_ratio=1.40 / aq=1:1.00
Language : English
Default : Yes
Forced : Yes

Audio #1
ID : 2
Format : AC-3
Format/Info : Audio Coding 3
Mode extension : CM (complete main)
Format settings, Endianness : Big
Codec ID : A_AC3
Duration : 1h 38mn
Bit rate mode : Constant
Bit rate : 448 Kbps
Channel(s) : 6 channels
Channel positions : Front: L C R, Side: L R, LFE
Sampling rate : 48.0 KHz
Bit depth : 16 bits
Compression mode : Lossy
Stream size : 316 MiB (7%)
Title : DD 5.1 @ 448 kbps - MVO, R5
Language : Russian
Default : Yes
Forced : Yes

Audio #2
ID : 3
Format : DTS
Format/Info : Digital Theater Systems
Codec ID : A_DTS
Duration : 1h 38mn
Bit rate mode : Constant
Bit rate : 1 510 Kbps
Channel(s) : 6 channels
Channel positions : Front: L C R, Side: L R, LFE
Sampling rate : 48.0 KHz
Bit depth : 24 bits
Compression mode : Lossy
Stream size : 1.04 GiB (22%)
Title : DTS 5.1 @ 1536 kbps
Language : English
Default : No
Forced : No

Text
ID : 4
Format : UTF-8
Codec ID : S_TEXT/UTF8
Codec ID/Info : UTF-8 Plain Text
Language : English
Default : No
Forced : No

Menu
00:00:00.000 : en:00:00:00.000
00:08:35.515 : en:00:08:35.515
00:16:28.613 : en:00:16:28.613
00:26:35.677 : en:00:26:35.677
00:33:25.962 : en:00:33:25.962
00:41:33.700 : en:00:41:33.700
00:48:15.851 : en:00:48:15.851
00:54:49.828 : en:00:54:49.828
01:07:29.504 : en:01:07:29.504
01:17:21.220 : en:01:17:21.220
01:25:14.067 : en:01:25:14.067
01:34:02.637 : en:01:34:02.637

Как скачать!

  • Похожие темы
    Ответы
    Просмотры
    Последнее сообщение

Вернуться в «Фильмы HD»

Кто сейчас на конференции

Сейчас этот форум просматривают: Yandex [Bot] и 1 гость