Голодные игры: И вспыхнет пламя / The Hunger Games: Catching Fire (2013) BDRip [720p] 2D -> 3D [Горизонтальная анаморфна скачать бесплатно торрент

Фильмы высокого разрешения в формате HD
Торрент [ Статус: Проверен ] Скачать Сидеров Личеров Размер
The.Hunger.Games.Catching.Fire.2013.BDRip.x265.HEVC.720p.mkv.tor...
0 0 5.95 ГБ
Аватара пользователя
admin
Администратор
Администратор
Сообщения: 11117
Зарегистрирован: 13 дек 2013, 01:15
Благодарил (а): 7 раз
Контактная информация:

Голодные игры: И вспыхнет пламя / The Hunger Games: Catching Fire (2013) BDRip [720p] 2D -> 3D [Горизонтальная анаморфна

Сообщение admin » 31 янв 2014, 18:52

Год выпуска: 2013
Производство: США, Color Force, Lionsgate
Жанр: Фантастика, Боевик, Триллер, Приключения
Перевод: Дублированный (Чистый звук)
Субтитры: Вшитые отключаемые
Язык субтитров: Русский, Английский (полные, SDH)

Дата мировой премьеры: 11 ноября 2013
Дата российской премьеры: 21 ноября 2013, «Вольга»
Дата выхода релиза: 24 апреля 2014, «Вольга»

Режиссер: Френсис Лоуренс
Продюсер: Сьюзен Коллинз, Джозеф Дрэйк, Нина Джейкобсон
Актеры: Дженнифер Лоуренс, Джош Хатчерсон, Сэм Клафлин, Джена Мэлоун, Вуди Харрельсон, Элизабет Бэнкс, Лиам Хемсворт, Дональд Сазерленд, Филип Сеймур Хоффман, Стэнли Туччи

Описание фильма:
Сумев выжить на безжалостных Голодных играх, Китнисс Эвердин и Пит Мелларк возвращаются домой. Но теперь они в еще большей опасности, так как своим отказом играть по правилам на Арене бросили вызов Капитолию. По традиции следующие, юбилейные, Голодные игры должны стать особенными, и в этот раз в них участвуют только победители прошлых лет. Китнисс и Пит вынуждены вновь выйти на Арену, где будут соперничать с сильнейшими. Правила игры меняются. Арена еще опасней, масштаб еще больше, ставки еще выше!

Изображение

Продолжительность: 02:26:15
Качество видео: BDRip [720p]

Видеокодек: High Efficiency Video Coding/H.265
Битрейт видео: ~4682 kbps
Размер кадра: 1280x720
Аудио #1: AC3, 48.0 KHz, 6 ch, 384 Kbps, CBR (русский)
Аудио #2: AC3, 48.0 KHz, 6 ch, 640 Kbps, CBR (английский)

Сэмпл - http://sendfile.su/927474

Примечание: Кодированный видеофайл в видеокодеке H.265 (High Efficiency Video Coding), на данный момент (23-01-2014) не поддерживается аппаратными проигрывателями, поэтому предназначен исключительно для воспроизведения на ПК.
Сейчас гарантированно поддерживают новый H.265 (High Efficiency Video Coding) последние самые свежие версии следующих проигрывателей: MPC-HC в составе K-Lite Codec Pack или VLC Media Player.

Общее
Уникальный идентификатор : 226944053483163970784908417584547613781 (0xAABBD5B771AEA5B3BDFD1F9F922DCC55)
Полное имя : The.Hunger.Games.Catching.Fire.2013.BDRip.x265.HEVC.720p.mkv
Формат : Matroska
Версия формата : Version 4 / Version 2
Размер файла : 5,95 Гбайт
Продолжительность : 2 ч. 26 м.
Общий поток : 5821 Кбит/сек
Название фильма : Release for NNM-CLUB
Дата кодирования : UTC 2014-01-23 05:05:25
Программа кодирования : mkvmerge v6.7.0 ('Back to the Ground') 64bit built on Jan 8 2014 15:10:52
Библиотека кодирования : libebml v1.3.0 + libmatroska v1.4.1
Attachment : Yes

Видео
Идентификатор : 1
Формат : HEVC
Формат/Информация : High Efficiency Video Coding
Идентификатор кодека : V_MPEGH/ISO/HEVC
Продолжительность : 2 ч. 26 м.
Битрейт : 4682 Кбит/сек
Ширина : 1280 пикселей
Высота : 720 пикселей
Соотношение сторон : 16:9
Режим частоты кадров : Постоянный
Частота кадров : 23,976 кадра/сек
Бит/(Пиксели*Кадры) : 0.212
Размер потока : 4,78 Гбайт (80%)
Заголовок : Голодные игры: И вспыхнет пламя / The Hunger Games: Catching Fire (2013)
Default : Да
Forced : Нет

Аудио #1
Идентификатор : 2
Формат : AC-3
Формат/Информация : Audio Coding 3
Расширение режима : CM (complete main)
Параметр Endianness формата : Big
Идентификатор кодека : A_AC3
Продолжительность : 2 ч. 26 м.
Вид битрейта : Постоянный
Битрейт : 384 Кбит/сек
Каналы : 6 каналов
Расположение каналов : Front: L C R, Side: L R, LFE
Частота : 48,0 КГц
Битовая глубина : 16 бит
Метод сжатия : С потерями
Размер потока : 402 Мбайт (7%)
Заголовок : Русский дублированный (чистый звук) | AC3, 6 ch, 384 kbps
Язык : Russian
Default : Да
Forced : Нет

Аудио #2
Идентификатор : 3
Формат : AC-3
Формат/Информация : Audio Coding 3
Расширение режима : CM (complete main)
Параметр Endianness формата : Big
Идентификатор кодека : A_AC3
Продолжительность : 2 ч. 26 м.
Вид битрейта : Постоянный
Битрейт : 640 Кбит/сек
Каналы : 6 каналов
Расположение каналов : Front: L C R, Side: L R, LFE
Частота : 48,0 КГц
Битовая глубина : 16 бит
Метод сжатия : С потерями
Размер потока : 669 Мбайт (11%)
Заголовок : Original | AC3, 6 ch, 640 kbps
Язык : English
Default : Нет
Forced : Нет

Текст #1
Идентификатор : 4
Формат : UTF-8
Идентификатор кодека : S_TEXT/UTF8
Идентификатор кодека/Информация : UTF-8 Plain Text
Язык : Russian
Default : Нет
Forced : Нет

Текст #2
Идентификатор : 5
Формат : UTF-8
Идентификатор кодека : S_TEXT/UTF8
Идентификатор кодека/Информация : UTF-8 Plain Text
Язык : English
Default : Нет
Forced : Нет

Текст #3
Идентификатор : 6
Формат : UTF-8
Идентификатор кодека : S_TEXT/UTF8
Идентификатор кодека/Информация : UTF-8 Plain Text
Заголовок : SDH
Язык : English
Default : Нет
Forced : Нет

Меню
00:00:00.000 : en:00:00:00.000
00:11:24.684 : en:00:11:24.684
00:16:48.049 : en:00:16:48.049
00:25:38.078 : en:00:25:38.078
00:35:51.649 : en:00:35:51.649
00:44:22.576 : en:00:44:22.576
00:52:12.921 : en:00:52:12.921
01:01:11.376 : en:01:01:11.376
01:08:12.213 : en:01:08:12.213
01:16:48.938 : en:01:16:48.938
01:22:39.663 : en:01:22:39.663
01:29:21.731 : en:01:29:21.731
01:40:43.913 : en:01:40:43.913
01:50:47.766 : en:01:50:47.766
02:02:46.984 : en:02:02:46.984
02:09:58.958 : en:02:09:58.958

Как скачать!

  • Похожие темы
    Ответы
    Просмотры
    Последнее сообщение

Вернуться в «Фильмы HD»

Кто сейчас на конференции

Сейчас этот форум просматривают: нет зарегистрированных пользователей и 2 гостя