Ошин / Осин / Oshin (2013) HDTV 720p | L2 скачать бесплатно торрент

Фильмы высокого разрешения в формате HD
Торрент [ Статус: Проверен ] Скачать Сидеров Личеров Размер
Oshin.2013.HDTV.720p.torrent
0 0 2.57 ГБ
Аватара пользователя
admin
Администратор
Администратор
Сообщения: 11032
Зарегистрирован: 13 дек 2013, 01:15
Благодарил (а): 7 раз
Контактная информация:

Ошин / Осин / Oshin (2013) HDTV 720p | L2

Сообщение admin » 10 мар 2014, 21:43

Информация о фильме
Название: Ошин / Осин
Оригинальное название: Oshin
Год выхода: 2013
Жанр: драма
Режиссер: Шин Тогаси
В ролях: Ая Уето, Горо Инагаки, Аяко Кобаяси, Дзицуко Ёсимура, Коконе Хамада, Гуц Исимацу, Кайоко Кишимото, Манами Игашира, Пинко Изуми, Шинносуке Мицусима

О фильме:
Юная девушка по имени Осин, видя в каких бедных условиях приходится жить её семье, решает помочь своим родителям и едет в большой город, чтобы заработать хоть немного денег. Там она устраивается работать служанкой в богатый дом. Каждый день девушке приходится много трудиться, однако, не смотря на то, что она очень скучает по своим родным, Осин понимает, что пока возвращение невозможно и продолжает старательно выполнять свои обязанности... С каждым днем девочке все труднее и труднее... Сможет ли она преодолеть все трудности выпавшие на ее хрупкие плечи и вернуться в родной Дом?

Изображение

Выпущено: Япония, Китай
Продолжительность: 01:49:19
Озвучивание: Любительское (двухголосое) [DeadSno & den904]
перевод на русский язык [akira9]

Файл
Формат: AVI
Качество: HDTV 720p [NET]
Видео: 3001 kb/s, 1280х720
Аудио: Russian / Japanese: AC3, 192 kb/s (2 ch)
Субтитры: Japanese (hard sub), English

Сэмпл - http://yadi.sk/d/NJUWSZITJV5N6
Общее
Oshin.2013.HDTV.720p.mkv
Формат : Matroska
Версия формата : Version 4 / Version 2
Размер файла : 2,57 Гбайт
Продолжительность : 1 ч. 49 м.
Общий поток : 3361 Кбит/сек
Название фильма : Oshin
Дата кодирования : UTC 2014-02-24 20:25:26
Программа кодирования : mkvmerge v6.7.0 ('Back to the Ground') 64bit built on Jan 8 2014 15:10:52
Библиотека кодирования : libebml v1.3.0 + libmatroska v1.4.1

Видео
Идентификатор : 1
Формат : AVC
Формат/Информация : Advanced Video Codec
Профиль формата : Baseline@L3.1
Параметр CABAC формата : Нет
Параметр ReFrames формата : 1 кадр
Идентификатор кодека : V_MPEG4/ISO/AVC
Продолжительность : 1 ч. 49 м.
Битрейт : 3001 Кбит/сек
Ширина : 1280 пикселей
Высота : 720 пикселей
Соотношение сторон : 16:9
Режим частоты кадров : Постоянный
Частота кадров : 24,000 кадра/сек
Цветовое пространство : YUV
Субдискретизация насыщенности : 4:2:0
Битовая глубина : 8 бит
Тип развёртки : Прогрессивная
Бит/(Пиксели*Кадры) : 0.132
Размер потока : 2,22 Гбайт (87%)
Заголовок : Oshin
Default : Да
Forced : Нет

Аудио #1
Идентификатор : 2
Формат : AC-3
Формат/Информация : Audio Coding 3
Расширение режима : CM (complete main)
Параметр Endianness формата : Big
Идентификатор кодека : A_AC3
Продолжительность : 1 ч. 49 м.
Вид битрейта : Постоянный
Битрейт : 192 Кбит/сек
Каналы : 2 канала
Расположение каналов : Front: L R
Частота : 48,0 КГц
Битовая глубина : 16 бит
Метод сжатия : С потерями
Размер потока : 150 Мбайт (6%)
Заголовок : Влад и Снежинка
Язык : Russian
Default : Да
Forced : Да

Аудио #2
Идентификатор : 3
Формат : AC-3
Формат/Информация : Audio Coding 3
Расширение режима : CM (complete main)
Параметр Endianness формата : Big
Идентификатор кодека : A_AC3
Продолжительность : 1 ч. 49 м.
Вид битрейта : Постоянный
Битрейт : 192 Кбит/сек
Каналы : 2 канала
Частота : 48,0 КГц
Метод сжатия : С потерями
Размер потока : 150 Мбайт (6%)
Библиотека кодирования : LAME3.98.2
Язык : Japanese
Default : Нет
Forced : Нет

Текст
Идентификатор : 4
Формат : UTF-8
Идентификатор кодека : S_TEXT/UTF8
Идентификатор кодека/Информация : UTF-8 Plain Text
Язык : English
Default : Нет
Forced : Нет

Как скачать!

  • Похожие темы
    Ответы
    Просмотры
    Последнее сообщение

Вернуться в «Фильмы HD»

Кто сейчас на конференции

Сейчас этот форум просматривают: нет зарегистрированных пользователей и 6 гостей