Армейский пирог / Achtung, fertig, Charlie! (2003) BDRip 720p | D, P2 скачать бесплатно торрент

Фильмы высокого разрешения в формате HD
Торрент [ Статус: Проверен ] Скачать Сидеров Личеров Размер
Achtung.Fertig.Charlie.2003.x264.BDRip.720p.torrent
47 9 5.41 ГБ
Аватара пользователя
admin
Администратор
Администратор
Сообщения: 11117
Зарегистрирован: 13 дек 2013, 01:15
Благодарил (а): 7 раз
Контактная информация:

Армейский пирог / Achtung, fertig, Charlie! (2003) BDRip 720p | D, P2

Сообщение admin » 11 мар 2014, 20:00

Информация о фильме
Название: Армейский пирог
Оригинальное название: Achtung, fertig, Charlie!
Год выхода: 2003
Жанр: Комедия, мелодрама
Режиссер: Майк Эшманн
В ролях: Майкл Кох, Мелани Винигер, Мириам Эгертер, Марко Рима, Мартин Рапольд, Макс Рюдлингер, Николас Стейнер, Кая Инан, Марио Альмер, Майк Мюллер

О фильме:
Воинский долг — превыше всего. Это и пришлось испытать красавцу Антонио в самый главный день своей жизни, когда он повел к алтарю девушку своей мечты. В тот самый момент появились посланцы Министерства Обороны и под конвоем доставили беднягу-жениха прямо во фраке на призывной пункт. Капитан довольно потирает руки и злорадствует в предвкушении «больших маневров». А выжить помогут только боевые товарищи, среди которых убежденный пацифист, симпатичный гей, удачливый плейбой, великий экспериментатор в области травок, таблеток и прочей дурманящей ерунды, среди объектов желания которых — не только женщины, но и обогревательные приборы. Ну и, конечно, очаровательные сослуживицы, добровольно вставшие «под ружье», но вместо оружия получившие почетное право дуть в тромбон на утренних построениях. Все попытки незадачливого жениха соединиться с возлюбленной неизменно завершаются гауптвахтой. Единственный способ быть отчисленным из учебки — соблазнить дочку командира Мишель, но коварный план дает сбой…



Страна: Швейцария / Zodiac Pictures International Ltd.
Продолжительность: 01:31:36
Перевод: Дублированный, профессиональный двухголосый

Файл
Качество: BDRip 720p
Видео: MPEG-4 AVC, 6300 Кбит/с, 1280x694, 23.976 кадр/с
Аудио #1: Русский (AC3, 6 ch, 448 Кбит/с) / Дублированный
Аудио #2: Украинский (AC3, 2 ch, 192 Кбит/с) / Профессиональный двухголосый
Аудио #3: Немецкий (DTS, 6 ch, 1510 Кбит/с)
Субтитры: Русские, английские

Семпл - http://multi-up.com/958082
x264 [info]: frame I:930 Avg QP:16.61 size:147448
x264 [info]: frame P:29129 Avg QP:19.13 size: 56074
x264 [info]: frame B:101715 Avg QP:21.04 size: 25123
x264 [info]: consecutive B-frames: 1.8% 2.6% 9.1% 21.3% 19.2% 40.8% 3.6% 1.0% 0.3% 0.2% 0.1% 0.0%
x264 [info]: mb I I16..4: 2.1% 85.2% 12.7%
x264 [info]: mb P I16..4: 0.5% 17.2% 1.1% P16..4: 28.7% 35.1% 13.8% 0.0% 0.0% skip: 3.6%
x264 [info]: mb B I16..4: 0.1% 2.2% 0.1% B16..8: 34.8% 21.7% 4.1% direct:13.2% skip:23.8% L0:41.6% L1:40.8% BI:17.6%
x264 [info]: 8x8 transform intra:91.1% inter:60.9%
x264 [info]: direct mvs spatial:98.5% temporal:1.5%
x264 [info]: coded y,uvDC,uvAC intra: 93.2% 77.0% 42.5% inter: 50.8% 26.3% 5.6%
x264 [info]: i16 v,h,dc,p: 48% 16% 7% 29%
x264 [info]: i8 v,h,dc,ddl,ddr,vr,hd,vl,hu: 11% 7% 7% 10% 14% 13% 13% 12% 13%
x264 [info]: i4 v,h,dc,ddl,ddr,vr,hd,vl,hu: 15% 6% 7% 8% 15% 14% 13% 11% 11%
x264 [info]: i8c dc,h,v,p: 37% 27% 19% 16%
x264 [info]: Weighted P-Frames: Y:12.5% UV:3.2%
x264 [info]: ref P L0: 38.5% 12.5% 20.2% 8.2% 7.0% 5.0% 4.9% 3.0% 0.6% 0.0%
x264 [info]: ref B L0: 76.6% 11.4% 5.0% 2.9% 2.1% 1.3% 0.7%
x264 [info]: ref B L1: 94.8% 5.2%
x264 [info]: kb/s:6296.67
Format : Matroska
Format version : Version 4 / Version 2
File size : 5.41 GiB
Duration : 1h 31mn
Overall bit rate : 8 449 Kbps
Movie name : -=MediaClub - Odessit=-
Encoded date : UTC 2014-03-11 15:30:42
Writing application : mkvmerge v6.8.0 ('Theme for Great Cities') 64bit built on Mar 2 2014 21:34:26
Writing library : libebml v1.3.0 + libmatroska v1.4.1

Video
ID : 1
Format : AVC
Format/Info : Advanced Video Codec
Format profile : High@L4.1
Format settings, CABAC : Yes
Format settings, ReFrames : 8 frames
Codec ID : V_MPEG4/ISO/AVC
Duration : 1h 31mn
Bit rate : 6 300 Kbps
Width : 1 280 pixels
Height : 694 pixels
Display aspect ratio : 16:9
Frame rate : 23.976 fps
Color space : YUV
Chroma subsampling : 4:2:0
Bit depth : 8 bits
Scan type : Progressive
Bits/(Pixel*Frame) : 0.296
Stream size : 3.92 GiB (73%)
Writing library : x264 core 142 r2389+41 02cb608 tMod [8-bit@4:2:0 X86_64]
Encoding settings : cabac=1 / ref=8 / deblock=1:-3:-3 / analyse=0x3:0x113 / me=umh / subme=11 / psy=1 / fade_compensate=0.00 / psy_rd=1.00:0.00 / mixed_ref=1 / me_range=48 / chroma_me=1 / trellis=2 / 8x8dct=1 / cqm=0 / deadzone=21,11 / fast_pskip=0 / chroma_qp_offset=-2 / threads=6 / lookahead_threads=1 / sliced_threads=0 / nr=0 / decimate=0 / interlaced=0 / bluray_compat=0 / constrained_intra=0 / fgo=0 / bframes=12 / b_pyramid=2 / b_adapt=2 / b_bias=0 / direct=3 / weightb=1 / open_gop=0 / weightp=2 / keyint=240 / keyint_min=23 / scenecut=40 / intra_refresh=0 / rc=2pass / mbtree=0 / bitrate=6300 / ratetol=1.0 / qcomp=0.60 / qpmin=0:0:0 / qpmax=69:69:69 / qpstep=4 / cplxblur=20.0 / qblur=0.5 / ip_ratio=1.40 / pb_ratio=1.30 / aq=2:0.80 / aq-sensitivity=10.00 / aq-factor=1.00:1.00:1.00 / aq2=0 / aq3=0
Language : English

Audio #1
ID : 2
Format : AC-3
Format/Info : Audio Coding 3
Mode extension : CM (complete main)
Codec ID : A_AC3
Duration : 1h 31mn
Bit rate mode : Constant
Bit rate : 448 Kbps
Channel(s) : 6 channels
Channel positions : Front: L C R, Side: L R, LFE
Sampling rate : 48.0 KHz
Bit depth : 16 bits
Compression mode : Lossy
Stream size : 294 MiB (5%)
Title : Дубляж, R5
Language : Russian

Audio #2
ID : 3
Format : AC-3
Format/Info : Audio Coding 3
Mode extension : CM (complete main)
Codec ID : A_AC3
Duration : 1h 31mn
Bit rate mode : Constant
Bit rate : 192 Kbps
Channel(s) : 2 channels
Channel positions : Front: L R
Sampling rate : 48.0 KHz
Bit depth : 16 bits
Compression mode : Lossy
Stream size : 126 MiB (2%)
Title : Двухголосый закадровый
Language : Ukrainian

Audio #3
ID : 4
Format : DTS
Format/Info : Digital Theater Systems
Codec ID : A_DTS
Duration : 1h 31mn
Bit rate mode : Constant
Bit rate : 1 510 Kbps
Channel(s) : 6 channels
Channel positions : Front: L C R, Side: L R, LFE
Sampling rate : 48.0 KHz
Bit depth : 24 bits
Compression mode : Lossy
Stream size : 989 MiB (18%)
Language : German

Text #1
ID : 5
Format : UTF-8
Codec ID : S_TEXT/UTF8
Codec ID/Info : UTF-8 Plain Text
Language : Russian

Text #2
ID : 6
Format : UTF-8
Codec ID : S_TEXT/UTF8
Codec ID/Info : UTF-8 Plain Text
Language : English

Menu
00:00:00.000 : :Chapter 01
00:09:23.980 : :Chapter 02
00:19:24.997 : :Chapter 03
00:29:22.218 : :Chapter 04
00:41:01.417 : :Chapter 05
00:49:24.210 : :Chapter 06
00:58:58.618 : :Chapter 07
01:08:06.874 : :Chapter 08
01:21:51.615 : :Chapter 09
01:28:19.752 : :Chapter 10

Как скачать!

  • Похожие темы
    Ответы
    Просмотры
    Последнее сообщение

Вернуться в «Фильмы HD»

Кто сейчас на конференции

Сейчас этот форум просматривают: нет зарегистрированных пользователей и 1 гость