Прогулки с динозаврами / Walking with Dinosaurs (2013) BDRip 720p | Лицензия скачать бесплатно торрент

Фильмы высокого разрешения в формате HD
Торрент [ Статус: Проверен ] Скачать Сидеров Личеров Размер
Walking.With.Dinosaurs.2013.720p.torrent
709 119 5.34 ГБ
Аватара пользователя
admin
Администратор
Администратор
Сообщения: 11002
Зарегистрирован: 13 дек 2013, 01:15
Благодарил (а): 7 раз
Контактная информация:

Прогулки с динозаврами / Walking with Dinosaurs (2013) BDRip 720p | Лицензия

Сообщение admin » 13 мар 2014, 20:02

Информация о фильме
Название: Прогулки с динозаврами 3D
Оригинальное название: Walking with Dinosaurs 3D
Год выхода: 2013
Жанр: Анимация, приключения, семейный
Режиссер: Бэрри Кук, Нил Найтингейл
В ролях: Чарли Роу, Карл Урбан, Ангури Райс, Джон Легуизамо, Джастин Лонг, Скайлер Стоун, Тия Сиркар, Клэй Сэвадж, Джуд Тинсели, Мэри Мэтилин Маусер

О фильме: «Прогулки с динозаврами» — это увлекательное путешествие с полным погружением в 3D-реальность, созданную по инновационной технологии CGI. Мы увидим, как выглядели динозавры, как они жили и с какими опасностями им пришлось столкнуться. Главный герой истории — храбрый динозаврик Патчи, он самый маленький в семье, но именно ему предстоит стать лидером и спасти своих сородичей.

/

Выпущено: США, Великобритания, Индия / Animal Logic, BBC Earth, BBC Worldwide
Продолжительность: 01:27:23
Озвучивание: Дублированное [лицензия]

Файл
Формат: MKV
Качество: BDRip 720p
Видео: 6800 kb/s, 1280x536
Аудио: Русский (AC3, 6 ch, 448 Кбит/с), английский (DTS, 6 ch, 1510 Кбит/с)
Субтитры: Английские

Изображение
Формат : Matroska

Версия формата : Version 2

Размер файла : 5,34 Гбайт

Продолжительность : 1 ч. 27 м.

Общий поток : 8747 Кбит/сек

Дата кодирования : UTC 2014-03-13 11:12:01

Программа кодирования : mkvmerge v6.7.0 ('Back to the Ground') 64bit built on Jan 8 2014 15:10:52

Библиотека кодирования : libebml v1.3.0 + libmatroska v1.4.1



Видео

Идентификатор : 1

Формат : AVC

Формат/Информация : Advanced Video Codec

Профиль формата : High@L4.1

Параметр CABAC формата : Да

Параметр ReFrames формата : 12 кадров

Идентификатор кодека : V_MPEG4/ISO/AVC

Продолжительность : 1 ч. 27 м.

Битрейт : 6800 Кбит/сек

Ширина : 1280 пикселей

Высота : 536 пикселей

Соотношение сторон : 2,40:1

Режим частоты кадров : Постоянный

Частота кадров : 23,976 кадра/сек

Цветовое пространство : YUV

Субдискретизация насыщенности : 4:2:0

Битовая глубина : 8 бит

Тип развёртки : Прогрессивная

Бит/(Пиксели*Кадры) : 0.413

Размер потока : 4,04 Гбайт (76%)

Библиотека кодирования : x264 core 140 r2377+40 929f149 tMod [8-bit@4:2:0 X86_64]

Настройки программы : cabac=1 / ref=12 / deblock=1:-2:2 / analyse=0x3:0x113 / me=umh / subme=11 / psy=1 / fade_compensate=0.00 / psy_rd=1.00:0.00 / mixed_ref=1 / me_range=32 / chroma_me=1 / trellis=2 / 8x8dct=1 / cqm=0 / deadzone=21,11 / fast_pskip=0 / chroma_qp_offset=-2 / threads=18 / lookahead_threads=3 / sliced_threads=0 / nr=0 / decimate=0 / interlaced=0 / bluray_compat=0 / constrained_intra=0 / fgo=0 / bframes=8 / b_pyramid=2 / b_adapt=2 / b_bias=0 / direct=3 / weightb=1 / open_gop=0 / weightp=2 / keyint=240 / keyint_min=24 / scenecut=40 / intra_refresh=0 / rc=2pass / mbtree=0 / bitrate=6800 / ratetol=1.0 / qcomp=0.70 / qpmin=0:0:0 / qpmax=69:69:69 / qpstep=4 / cplxblur=20.0 / qblur=0.5 / ip_ratio=1.20 / pb_ratio=1.20 / aq=4:0.90 / aq-sensitivity=10.00 / aq-factor=1.00:1.00:1.00 / aq2=0 / aq3=0

Язык : English

Default : Да

Forced : Нет



Аудио #1

Идентификатор : 2

Формат : AC-3

Формат/Информация : Audio Coding 3

Расширение режима : CM (complete main)

Параметр Endianness формата : Big

Идентификатор кодека : A_AC3

Продолжительность : 1 ч. 27 м.

Вид битрейта : Постоянный

Битрейт : 448 Кбит/сек

Каналы : 6 каналов

Расположение каналов : Front: L C R, Side: L R, LFE

Частота : 48,0 КГц

Битовая глубина : 16 бит

Метод сжатия : С потерями

Размер потока : 280 Мбайт (5%)

Язык : Russian

Default : Да

Forced : Нет



Аудио #2

Идентификатор : 3

Формат : DTS

Формат/Информация : Digital Theater Systems

Режим : 16

Параметр Endianness формата : Big

Идентификатор кодека : A_DTS

Продолжительность : 1 ч. 27 м.

Вид битрейта : Постоянный

Битрейт : 1509 Кбит/сек

Каналы : 6 каналов

Расположение каналов : Front: L C R, Side: L R, LFE

Частота : 48,0 КГц

Битовая глубина : 24 бит

Метод сжатия : С потерями

Размер потока : 943 Мбайт (17%)

Язык : English

Default : Нет

Forced : Нет



Текст #1

Идентификатор : 4

Формат : UTF-8

Идентификатор кодека : S_TEXT/UTF8

Идентификатор кодека/Информация : UTF-8 Plain Text

Заголовок : English

Язык : English

Default : Да

Forced : Нет



Текст #2

Идентификатор : 5

Формат : UTF-8

Идентификатор кодека : S_TEXT/UTF8

Идентификатор кодека/Информация : UTF-8 Plain Text

Заголовок : English SDH

Язык : English

Default : Нет

Forced : Нет



Меню

00:00:00.000 : en:00:00:00.000

00:01:44.771 : en:00:01:44.771

00:05:21.196 : en:00:05:21.196

00:07:27.989 : en:00:07:27.989

00:12:06.351 : en:00:12:06.351

00:14:47.220 : en:00:14:47.220

00:17:04.190 : en:00:17:04.190

00:18:30.609 : en:00:18:30.609

00:21:47.389 : en:00:21:47.389

00:24:30.761 : en:00:24:30.761

00:27:07.459 : en:00:27:07.459

00:28:28.206 : en:00:28:28.206

00:30:40.756 : en:00:30:40.756

00:32:58.643 : en:00:32:58.643

00:37:38.006 : en:00:37:38.006

00:42:02.562 : en:00:42:02.562

00:44:00.096 : en:00:44:00.096

00:47:36.103 : en:00:47:36.103

00:50:59.473 : en:00:50:59.473

00:52:51.043 : en:00:52:51.043

00:56:49.281 : en:00:56:49.281

00:58:20.997 : en:00:58:20.997

01:02:48.973 : en:01:02:48.973

01:06:45.627 : en:01:06:45.627

01:10:40.319 : en:01:10:40.319

01:16:54.485 : en:01:16:54.485

01:18:40.466 : en:01:18:40.466

01:20:15.811 : en:01:20:15.811

Как скачать!

  • Похожие темы
    Ответы
    Просмотры
    Последнее сообщение

Вернуться в «Фильмы HD»

Кто сейчас на конференции

Сейчас этот форум просматривают: нет зарегистрированных пользователей и 4 гостя