Кровавый ледник / Schlaraffenhaus / Blood Glacier / The Station (2013) BDRip 1080p | L1 скачать бесплатно торрент

Фильмы высокого разрешения в формате HD
Торрент [ Статус: Проверен ] Скачать Сидеров Личеров Размер
Schlaraffenhaus.2013.Blu.Ray.1080p.torrent
149 7 4.62 ГБ
Аватара пользователя
admin
Администратор
Администратор
Сообщения: 11117
Зарегистрирован: 13 дек 2013, 01:15
Благодарил (а): 7 раз
Контактная информация:

Кровавый ледник / Schlaraffenhaus / Blood Glacier / The Station (2013) BDRip 1080p | L1

Сообщение admin » 17 мар 2014, 19:20

Информация о фильме
Название: Кровавый ледник
Оригинальное название: Schlaraffenhaus / Blood Glacier / The Station
Год выхода: 2013
Жанр: ужасы
Режиссер: Марвин Крен
В ролях: Герхард Либманн, Эдита Маловчич, Бригитта Крен, Сантос, Хилле Бизелер, Петер Кнаак, Феликс Ромер, Вольфганг Пампель, Мурасан Муслу, Михаэль Фуйт

О фильме:
События фильма развернутся в Альпах, где расположилась климатическая станция, на которой со своими коллегами работает техник Янек. Накануне приезда туда новой группы ученых, персонал станции сталкивается с необычным явлением - из ледника начинает сочиться странная жидкость, под воздействием которой все животные начинают мутировать и нападать на людей. Станция превращается в своеобразную крепость для выживших, и все бы хорошо, но позже выясняется, что и люди так же подверглись заражению...



Выпущено: Австрия
Продолжительность: 01:37:12
Озвучивание: Любительское (одноголосое) [den904]

Файл
Формат: MKV
Качество: BDRip 1080p [ENCOUNTERS]
Видео: 8312 kb/s, 1920x816
Аудио: Russian: AC3, 384 kb/s (6 ch) / German: DTS, 1510 kb/s (6 ch)
Дополнительно: Сохранены оригинальные чаптеры как на Blu-Ray

Сэмпл - http://yadi.sk/d/_TMYugOjKePFm
Общее
Schlaraffenhaus.2013.Blu.Ray.1080p
Формат : Matroska
Версия формата : Version 4 / Version 2
Размер файла : 4,62 Гбайт
Продолжительность : 1 ч. 37 м.
Общий поток : 6810 Кбит/сек
Название фильма : Release Group CINEMANIA
Дата кодирования : UTC 2014-03-16 22:17:23
Программа кодирования : mkvmerge v6.8.0 ('Theme for Great Cities') 64bit built on Mar 2 2014 21:34:26
Библиотека кодирования : libebml v1.3.0 + libmatroska v1.4.1

Видео
Идентификатор : 1
Формат : AVC
Формат/Информация : Advanced Video Codec
Профиль формата : High@L4.1
Параметр CABAC формата : Да
Параметр ReFrames формата : 5 кадров
Идентификатор кодека : V_MPEG4/ISO/AVC
Продолжительность : 1 ч. 37 м.
Битрейт : 8312 Кбит/сек
Ширина : 1920 пикселей
Высота : 816 пикселей
Соотношение сторон : 2,35:1
Режим частоты кадров : Постоянный
Частота кадров : 24,000 кадра/сек
Цветовое пространство : YUV
Субдискретизация насыщенности : 4:2:0
Битовая глубина : 8 бит
Тип развёртки : Прогрессивная
Бит/(Пиксели*Кадры) : 0.127
Размер потока : 3,25 Гбайт (70%)

Библиотека кодирования : x264 core 140 r2377 1ca7bb9
Настройки программы : cabac=1 / ref=5 / deblock=1:-1:-1 / analyse=0x3:0x133 / me=umh / subme=7 / psy=1 / psy_rd=1.00:0.15 / mixed_ref=1 / me_range=16 / chroma_me=1 / trellis=1 / 8x8dct=1 / cqm=0 / deadzone=21,11 / fast_pskip=0 / chroma_qp_offset=-3 / threads=9 / lookahead_threads=1 / sliced_threads=0 / nr=0 / decimate=1 / interlaced=0 / bluray_compat=0 / constrained_intra=0 / bframes=3 / b_pyramid=2 / b_adapt=1 / b_bias=0 / direct=1 / weightb=1 / open_gop=0 / weightp=2 / keyint=250 / keyint_min=24 / scenecut=40 / intra_refresh=0 / rc_lookahead=40 / rc=crf / mbtree=1 / crf=20.0 / qcomp=0.60 / qpmin=0 / qpmax=69 / qpstep=4 / ip_ratio=1.40 / aq=1:1.00
Default : Да
Forced : Нет

Аудио #1
Идентификатор : 2
Формат : AC-3
Формат/Информация : Audio Coding 3
Расширение режима : CM (complete main)
Параметр Endianness формата : Big
Идентификатор кодека : A_AC3
Продолжительность : 1 ч. 37 м.
Вид битрейта : Постоянный
Битрейт : 384 Кбит/сек
Каналы : 6 каналов
Расположение каналов : Front: L C R, Side: L R, LFE
Частота : 48,0 КГц
Битовая глубина : 16 бит
Метод сжатия : С потерями
Размер потока : 267 Мбайт (6%)
Заголовок : den904
Язык : Russian
Default : Да
Forced : Да

Аудио #2
Идентификатор : 3
Формат : DTS
Формат/Информация : Digital Theater Systems
Режим : 16
Параметр Endianness формата : Big
Идентификатор кодека : A_DTS
Продолжительность : 1 ч. 37 м.
Вид битрейта : Постоянный
Битрейт : 1509 Кбит/сек
Каналы : 6 каналов
Расположение каналов : Front: L C R, Side: L R, LFE
Частота : 48,0 КГц
Битовая глубина : 16 бит
Метод сжатия : С потерями
Размер потока : 1,02 Гбайт (22%)
Язык : German
Default : Нет
Forced : Нет

Меню
00:00:00.000 : de:00:00:00.000
00:08:42.000 : de:00:08:42.000
00:16:56.792 : de:00:16:56.792
00:26:48.917 : de:00:26:48.917
00:34:21.667 : de:00:34:21.667
00:42:43.000 : de:00:42:43.000
00:49:47.000 : de:00:49:47.000
00:58:49.833 : de:00:58:49.833
01:06:46.208 : de:01:06:46.208
01:16:25.292 : de:01:16:25.292
01:26:08.208 : de:01:26:08.208
01:33:18.833 : de:01:33:18.833

Как скачать!

  • Похожие темы
    Ответы
    Просмотры
    Последнее сообщение

Вернуться в «Фильмы HD»

Кто сейчас на конференции

Сейчас этот форум просматривают: нет зарегистрированных пользователей и 2 гостя