Прибежище / Haunt / Haunter (2014) WEB-DL 720p | L1 скачать бесплатно торрент

Фильмы высокого разрешения в формате HD
Торрент [ Статус: Проверен ] Скачать Сидеров Личеров Размер
Haunt.2013.WEB-DL.720p.mkv.torrent
1198 385 2.29 ГБ
Аватара пользователя
admin
Администратор
Администратор
Сообщения: 11117
Зарегистрирован: 13 дек 2013, 01:15
Благодарил (а): 7 раз
Контактная информация:

Прибежище / Haunt / Haunter (2014) WEB-DL 720p | L1

Сообщение admin » 17 мар 2014, 20:18

Информация о фильме
Название: Прибежище
Оригинальное название: Haunt / Haunter
Год выпуска: 2013 / Релиз на VOD и выход в прокат - 2014
Жанр: ужасы, триллер
Режиссер: Мак Картер
В ролях: Лиана Либерато, Айони Скай, Джеки Уивер, Харрисон Джилбертсон, Даниэль Чачран, Джен Броберг, Келли Нунан, Алин Андраде, Касия Ковальчук, Себастьян Майкл Барр

О фильме:
Начало фильма - классический переезд одной из американских семей в новый дом. Двое родителей и замкнувшийся в себе мальчик очень рады такой перемене, однако все не столь радужно, как это могло показаться. Новая соседка Итана - потрясающе красивая девочка, в которую он тут же влюбляется. Подростки начинают тесно общаться, так как у детей находится общий интерес – новый дом Итана. Как бывает во всех многолетних зданиях – у жилья есть некое свое темное прошлое, загадочность которого манит любопытных детей. Но становится совершенно очевидно: не все тайны стоит разгадывать, ибо некоторые темные углы таят нечто совершенно не безопасное…



Выпущено: США
Продолжительность: 01:25:47
Озвучивание: Любительское (одноголосое) [den904]

Файл
Формат: MKV
Качество: WEB-DL 720p [DownRev]
Видео: 3166 kb/s, 1280x532
Аудио: Russian: AC3, 192 kb/s (2 ch) / English: AC3, 384 kb/s (6 ch)
Субтитры: Russian [А.Кедров]
Дополнительно: Сохранены оригинальные чаптеры как на Blu-ray

Сэмпл - http://yadi.sk/d/o3eI0SmdKddjz
Общее
Haunt.2013.WEB-DL.720p.mkv
Формат : Matroska
Версия формата : Version 4 / Version 2
Размер файла : 2,29 Гбайт
Продолжительность : 1 ч. 25 м.
Общий поток : 3818 Кбит/сек
Название фильма : Haunt
Дата кодирования : UTC 2014-03-16 17:46:02
Программа кодирования : mkvmerge v6.8.0 ('Theme for Great Cities') 64bit built on Mar 2 2014 21:34:26
Библиотека кодирования : libebml v1.3.0 + libmatroska v1.4.1

Видео
Идентификатор : 1
Формат : AVC
Формат/Информация : Advanced Video Codec
Профиль формата : Main@L3.1
Параметр CABAC формата : Нет
Параметр ReFrames формата : 2 кадра
Идентификатор кодека : V_MPEG4/ISO/AVC
Продолжительность : 1 ч. 25 м.
Битрейт : 3166 Кбит/сек
Ширина : 1280 пикселей
Высота : 532 пикселя
Соотношение сторон : 2,40:1
Режим частоты кадров : Постоянный
Частота кадров : 23,976 кадра/сек
Цветовое пространство : YUV
Субдискретизация насыщенности : 4:2:0
Битовая глубина : 8 бит
Тип развёртки : Прогрессивная
Бит/(Пиксели*Кадры) : 0.194
Размер потока : 1,90 Гбайт (83%)
Заголовок : Haunt
Язык : English
Default : Да
Forced : Нет
Основные цвета : BT.709
Характеристики трансфера : BT.709
Коэффициенты матрицы : BT.709

Аудио #1
Идентификатор : 2
Формат : AC-3
Формат/Информация : Audio Coding 3
Расширение режима : CM (complete main)
Параметр Endianness формата : Big
Идентификатор кодека : A_AC3
Продолжительность : 1 ч. 25 м.
Вид битрейта : Постоянный
Битрейт : 192 Кбит/сек
Каналы : 2 канала
Расположение каналов : Front: L R
Частота : 48,0 КГц
Битовая глубина : 16 бит
Метод сжатия : С потерями
Размер потока : 118 Мбайт (5%)
Заголовок : den904
Язык : Russian
Default : Нет
Forced : Нет

Аудио #2
Идентификатор : 3
Формат : AC-3
Формат/Информация : Audio Coding 3
Расширение режима : CM (complete main)
Параметр Endianness формата : Big
Идентификатор кодека : A_AC3
Продолжительность : 1 ч. 25 м.
Вид битрейта : Постоянный
Битрейт : 384 Кбит/сек
Каналы : 6 каналов
Расположение каналов : Front: L C R, Side: L R, LFE
Частота : 48,0 КГц
Битовая глубина : 16 бит
Метод сжатия : С потерями
Размер потока : 236 Мбайт (10%)
Язык : English
Default : Нет
Forced : Нет

Текст
Идентификатор : 4
Формат : UTF-8
Идентификатор кодека : S_TEXT/UTF8
Идентификатор кодека/Информация : UTF-8 Plain Text
Заголовок : А.Кедров
Язык : Russian
Default : Нет
Forced : Нет

Меню
00:00:00.000 : en:Chapter 1
00:13:22.000 : en:Chapter 2
00:22:58.000 : en:Chapter 3
00:32:54.000 : en:Chapter 4
00:43:44.000 : en:Chapter 5
00:53:51.000 : en:Chapter 6
01:04:54.000 : en:Chapter 7
01:13:28.000 : en:Chapter 8
01:21:08.000 : en:Chapter 9

Как скачать!

  • Похожие темы
    Ответы
    Просмотры
    Последнее сообщение

Вернуться в «Фильмы HD»

Кто сейчас на конференции

Сейчас этот форум просматривают: нет зарегистрированных пользователей и 1 гость