Хоббит: Пустошь Смауга / The Hobbit: The Desolation of Smaug (2013) BDRip 720p | L1 скачать бесплатно торрент

Фильмы высокого разрешения в формате HD
Торрент [ Статус: Проверен ] Скачать Сидеров Личеров Размер
The_Hobbit._The_Desolation_of_Smaug.BDRip.torrent
4 0 8.14 ГБ
Аватара пользователя
admin
Администратор
Администратор
Сообщения: 11037
Зарегистрирован: 13 дек 2013, 01:15
Благодарил (а): 7 раз
Контактная информация:

Хоббит: Пустошь Смауга / The Hobbit: The Desolation of Smaug (2013) BDRip 720p | L1

Сообщение admin » 19 мар 2014, 18:35

Информация о фильме
Название: Хоббит: Пустошь Смауга
Оригинальное название: The Hobbit: The Desolation of Smaug
Год выхода: 2013
Жанр: Фэнтези, приключения
Режиссер: Питер Джексон
В ролях: Мартин Фриман, Иэн МакКеллен, Ричард Армитедж, Джеймс Несбитт, Кен Стотт, Грэм МакТавиш, Уильям Кирчер, Стивен Хантер, Дин О’Горман, Эйдан Тернер

О фильме: После успешного перехода через Туманные горы, Торин и компания вынуждены обратиться за помощью к могучему незнакомцу, прежде чем отправиться в опасное Лихолесье без волшебника. Их компания обязана завершить свое путешествие к Одинокой горе, где Бэггинсу нужно будет найти потайную дверь, чтобы добраться до клада Смауга…



Страна: США, Новая Зеландия
Продолжительность: 02:41:16
Перевод: Любительский (одноголосный, закадровый) - Pashaup | Звук с DVDScr

Файл
Качество: BDRip 720p
Формат: MKV
Видео: MPEG4/AVC, 1280x534 (2.40:1), 5522 Кбит/сек, 23.976 кадра/сек, 0.337 Бит/(Пиксели*Кадры)
Аудио 1: AC3, 2 канала, 192 Кбит/с | Rus
Аудио 2: DTS, 6 каналов, 1509 Кбит/сек | Eng
Навигация по главам: Есть
Видеоряд: CHD

Сэмпл - http://www.multiupload.nl/9130GXWEE9
Общее
Уникальный идентификатор : 225646029915461776044575512714015274875 (0xA9C1D836B2BE7ABC8835A5E0A1C9F77B)
Полное имя : The Hobbit. The Desolation of Smaug. (2013)BDRip 720p.mkv
Формат : Matroska
Версия формата : Version 2
Размер файла : 8,14 Гбайт
Продолжительность : 2 ч. 41 м.
Общий поток : 7223 Кбит/сек
Дата кодирования : UTC 2014-03-19 12:10:36
Программа кодирования : mkvmerge v5.8.0 ('No Sleep / Pillow') built on Sep 2 2012 15:37:04
Библиотека кодирования : libebml v1.2.3 + libmatroska v1.3.0

Видео
Идентификатор : 1
Формат : AVC
Формат/Информация : Advanced Video Codec
Профиль формата : High@L4.1
Параметр CABAC формата : Да
Параметр ReFrames формата : 11 кадров
Идентификатор кодека : V_MPEG4/ISO/AVC
Продолжительность : 2 ч. 41 м.
Битрейт : 5522 Кбит/сек
Ширина : 1280 пикселей
Высота : 534 пикселя
Соотношение сторон : 2,40:1
Режим частоты кадров : Постоянный
Частота кадров : 23,976 кадра/сек
Цветовое пространство : YUV
Субдискретизация насыщенности : 4:2:0
Битовая глубина : 8 бит
Тип развёртки : Прогрессивная
Бит/(Пиксели*Кадры) : 0.337
Размер потока : 6,06 Гбайт (74%)
Библиотека кодирования : x264 core 138 r2356 a1d3d17
Настройки программы : cabac=1 / ref=11 / deblock=1:-3:-3 / analyse=0x3:0x113 / me=umh / subme=10 / psy=1 / psy_rd=1.00:0.05 / mixed_ref=1 / me_range=32 / chroma_me=1 / trellis=2 / 8x8dct=1 / cqm=0 / deadzone=21,11 / fast_pskip=0 / chroma_qp_offset=-2 / threads=18 / lookahead_threads=1 / sliced_threads=0 / nr=0 / decimate=1 / interlaced=0 / bluray_compat=0 / constrained_intra=0 / bframes=4 / b_pyramid=2 / b_adapt=2 / b_bias=0 / direct=3 / weightb=1 / open_gop=0 / weightp=2 / keyint=250 / keyint_min=23 / scenecut=40 / intra_refresh=0 / rc=2pass / mbtree=0 / bitrate=5522 / ratetol=1.0 / qcomp=0.70 / qpmin=0 / qpmax=69 / qpstep=4 / cplxblur=20.0 / qblur=0.5 / ip_ratio=1.40 / pb_ratio=1.30 / aq=2:0.90
Язык : English
Default : Да
Forced : Нет

Аудио #1
Идентификатор : 2
Формат : AC-3
Формат/Информация : Audio Coding 3
Расширение режима : CM (complete main)
Параметр Endianness формата : Big
Идентификатор кодека : A_AC3
Продолжительность : 2 ч. 41 м.
Вид битрейта : Постоянный
Битрейт : 192 Кбит/сек
Каналы : 2 канала
Расположение каналов : Front: L R
Частота : 48,0 КГц
Битовая глубина : 16 бит
Метод сжатия : С потерями
Размер потока : 222 Мбайт (3%)
Заголовок : Rus | AC3 | 192 Kbps | L1
Язык : Russian
Default : Да
Forced : Нет

Аудио #2
Идентификатор : 3
Формат : DTS
Формат/Информация : Digital Theater Systems
Режим : 16
Параметр Endianness формата : Big
Идентификатор кодека : A_DTS
Продолжительность : 2 ч. 41 м.
Вид битрейта : Постоянный
Битрейт : 1509 Кбит/сек
Каналы : 6 каналов
Расположение каналов : Front: L C R, Side: L R, LFE
Частота : 48,0 КГц
Битовая глубина : 24 бит
Метод сжатия : С потерями
Размер потока : 1,70 Гбайт (21%)
Заголовок : Eng | DTS | 1509Kbps
Язык : English
Default : Нет
Forced : Нет

Меню
00:00:00.000 : en:00:00:00.000
00:05:44.094 : en:00:05:44.094
00:10:10.985 : en:00:10:10.985
00:11:10.128 : en:00:11:10.128
00:13:50.204 : en:00:13:50.204
00:17:12.657 : en:00:17:12.657
00:21:25.326 : en:00:21:25.326
00:24:33.472 : en:00:24:33.472
00:33:03.273 : en:00:33:03.273
00:36:05.747 : en:00:36:05.747
00:39:38.960 : en:00:39:38.960
00:41:29.654 : en:00:41:29.654
00:44:27.290 : en:00:44:27.290
00:55:01.757 : en:00:55:01.757
00:58:41.768 : en:00:58:41.768
01:02:05.138 : en:01:02:05.138
01:05:29.592 : en:01:05:29.592
01:09:06.267 : en:01:09:06.267
01:11:29.118 : en:01:11:29.118
01:13:11.762 : en:01:13:11.762
01:19:14.959 : en:01:19:14.959
01:20:48.469 : en:01:20:48.469
01:23:12.529 : en:01:23:12.529
01:27:09.641 : en:01:27:09.641
01:30:45.482 : en:01:30:45.482
01:33:29.813 : en:01:33:29.813
01:41:57.194 : en:01:41:57.194
01:42:24.472 : en:01:42:24.472
01:44:08.033 : en:01:44:08.033
01:47:34.114 : en:01:47:34.114
01:56:46.333 : en:01:56:46.333
01:57:28.917 : en:01:57:28.917
01:58:03.410 : en:01:58:03.410
01:59:42.300 : en:01:59:42.300
02:01:30.575 : en:02:01:30.575
02:04:04.312 : en:02:04:04.312
02:07:58.462 : en:02:07:58.462
02:09:43.109 : en:02:09:43.109
02:10:58.642 : en:02:10:58.642
02:12:31.443 : en:02:12:31.443
02:13:54.318 : en:02:13:54.318
02:16:25.427 : en:02:16:25.427
02:18:51.490 : en:02:18:51.490
02:26:03.588 : en:02:26:03.588
02:30:51.209 : en:02:30:51.209

Как скачать!

  • Похожие темы
    Ответы
    Просмотры
    Последнее сообщение

Вернуться в «Фильмы HD»

Кто сейчас на конференции

Сейчас этот форум просматривают: Yandex [Bot] и 6 гостей