Афера по-американски / American Hustle (2013) BDRip 1080p | D,P скачать бесплатно торрент

Фильмы высокого разрешения в формате HD
Торрент [ Статус: Проверен ] Скачать Сидеров Личеров Размер
Afera_po-amerikanski.2013.BDRip.1080p.torrent
351 96 13.09 ГБ
Аватара пользователя
admin
Администратор
Администратор
Сообщения: 11037
Зарегистрирован: 13 дек 2013, 01:15
Благодарил (а): 7 раз
Контактная информация:

Афера по-американски / American Hustle (2013) BDRip 1080p | D,P

Сообщение admin » 19 мар 2014, 18:50

Название: Афера по-американски
Оригинальное название: American Hustle
Год выпуска: 2013
Жанр: Драма, комедия, реальные события
Выпущено: США, Annapurna Pictures
Режиссер: Дэвид О. Расселл
В ролях: Кристиан Бэйл, Брэдли Купер, Эми Адамс, Джереми Реннер, Дженнифер Лоуренс, Луис С.К., Джек Хьюстон, Майкл Пенья, Ши Уигхэм, Алессандро Нивола

Перевод: Дублированный, Профессиональный многоголосый

Описание фильма:
В основе сюжета фильма реальная спецоперация, проводимая в конце 70-х — начале 80-х ФБР под кодовым названием Abscam. Она изначально была нацелена на расследование торговли краденым товаром. ФБР собиралось внедрить в преступную среду своих агентов под видом посредников, скупающих краденые шедевры для богатых коллекционеров Ближнего Востока. Впоследствии операция превратилась в изобличение коррупции на разных уровнях.



Файл
Качество: BDRip 1080p (Исходник Blu-Ray )
Видео: 1920x800, 12037 Кбит/сек, 23.976 кадр/сек, AVC, x264, High@L4.1, 0.327 Бит/[Пиксели*Кадры], 2pass
Аудио 1: AC3 5.1 48 kHz 448 kbps - Дублированный - (Лицензия)
Аудио 2: AC3 5.1 48 kHz 448 kbps - Профессиональное (многоголосое) [BaibaKo]
Аудио 3: AC3 5.1 48 kHz 448 kbps - English


Чаптеры: есть
Продолжительность: 02:18:04
Субтитры: Русские, английские
Format : Matroska
Format version : Version 2
File size : 13.1 GiB
Duration : 2h 18mn
Overall bit rate : 13.6 Mbps
Movie name : Afera po-amerikanski.2013.BDRip.1080p
Encoded date : UTC 2014-03-19 15:05:01
Writing application : mkvmerge v5.8.0 ('No Sleep / Pillow') built on Sep 2 2012 15:37:04
Writing library : libebml v1.2.3 + libmatroska v1.3.0

Video
ID : 1
Format : AVC
Format/Info : Advanced Video Codec
Format profile : High@L4.1
Format settings, CABAC : Yes
Format settings, ReFrames : 5 frames
Codec ID : V_MPEG4/ISO/AVC
Duration : 2h 18mn
Bit rate : 12.0 Mbps
Width : 1 920 pixels
Height : 800 pixels
Display aspect ratio : 2.40:1
Frame rate mode : Constant
Frame rate : 23.976 fps
Color space : YUV
Chroma subsampling : 4:2:0
Bit depth : 8 bits
Scan type : Progressive
Bits/(Pixel*Frame) : 0.327
Stream size : 11.3 GiB (87%)
Title : Afera po-amerikanski.2013.BDRip.1080p
Writing library : x264 core 138 r2358 9e941d1
Encoding settings : cabac=1 / ref=5 / deblock=1:-3:-3 / analyse=0x3:0x113 / me=umh / subme=11 / psy=1 / psy_rd=1.05:0.10 / mixed_ref=1 / me_range=48 / chroma_me=1 / trellis=2 / 8x8dct=1 / cqm=0 / deadzone=21,11 / fast_pskip=0 / chroma_qp_offset=-2 / threads=18 / lookahead_threads=1 / sliced_threads=0 / nr=0 / decimate=1 / interlaced=0 / bluray_compat=0 / constrained_intra=0 / bframes=6 / b_pyramid=2 / b_adapt=2 / b_bias=0 / direct=3 / weightb=1 / open_gop=0 / weightp=2 / keyint=250 / keyint_min=23 / scenecut=40 / intra_refresh=0 / rc_lookahead=40 / rc=2pass / mbtree=0 / bitrate=12037 / ratetol=2.0 / qcomp=0.70 / qpmin=0 / qpmax=69 / qpstep=4 / cplxblur=20.0 / qblur=0.5 / vbv_maxrate=40000 / vbv_bufsize=30000 / nal_hrd=none / ip_ratio=1.40 / pb_ratio=1.30 / aq=2:1.00
Language : English
Default : Yes
Forced : No

Audio #1
ID : 2
Format : AC-3
Format/Info : Audio Coding 3
Mode extension : CM (complete main)
Format settings, Endianness : Big
Codec ID : A_AC3
Duration : 2h 18mn
Bit rate mode : Constant
Bit rate : 448 Kbps
Channel(s) : 6 channels
Channel positions : Front: L C R, Side: L R, LFE
Sampling rate : 48.0 KHz
Bit depth : 16 bits
Compression mode : Lossy
Stream size : 442 MiB (3%)
Title : Дублированный
Language : Russian
Default : Yes
Forced : No

Audio #2
ID : 3
Format : AC-3
Format/Info : Audio Coding 3
Mode extension : CM (complete main)
Format settings, Endianness : Big
Codec ID : A_AC3
Duration : 2h 18mn
Bit rate mode : Constant
Bit rate : 448 Kbps
Channel(s) : 6 channels
Channel positions : Front: L C R, Side: L R, LFE
Sampling rate : 48.0 KHz
Bit depth : 16 bits
Compression mode : Lossy
Stream size : 442 MiB (3%)
Title : Профессиональное (многоголосое) [BaibaKo]
Language : Russian
Default : No
Forced : No

Audio #3
ID : 4
Format : AC-3
Format/Info : Audio Coding 3
Mode extension : CM (complete main)
Format settings, Endianness : Big
Codec ID : A_AC3
Duration : 2h 18mn
Bit rate mode : Constant
Bit rate : 640 Kbps
Channel(s) : 6 channels
Channel positions : Front: L C R, Side: L R, LFE
Sampling rate : 48.0 KHz
Bit depth : 16 bits
Compression mode : Lossy
Stream size : 632 MiB (5%)
Title : English
Language : English
Default : No
Forced : No

Text #1
ID : 5
Format : UTF-8
Codec ID : S_TEXT/UTF8
Codec ID/Info : UTF-8 Plain Text
Title : Russian
Language : Russian
Default : No
Forced : No

Text #2
ID : 6
Format : UTF-8
Codec ID : S_TEXT/UTF8
Codec ID/Info : UTF-8 Plain Text
Title : English
Language : English
Default : No
Forced : No

Menu
00:00:00.000 : en:00:00:00.000
00:07:12.641 : en:00:07:12.641
00:14:11.142 : en:00:14:11.142
00:24:08.822 : en:00:24:08.822
00:31:28.970 : en:00:31:28.970
00:39:16.104 : en:00:39:16.104
00:48:40.334 : en:00:48:40.334
00:57:01.001 : en:00:57:01.001
01:06:18.600 : en:01:06:18.600
01:15:30.943 : en:01:15:30.943
01:24:12.756 : en:01:24:12.756
01:33:09.793 : en:01:33:09.793
01:41:35.089 : en:01:41:35.089
01:51:45.824 : en:01:51:45.824
02:00:25.301 : en:02:00:25.301
02:09:50.992 : en:02:09:50.992

Как скачать!

  • Похожие темы
    Ответы
    Просмотры
    Последнее сообщение

Вернуться в «Фильмы HD»

Кто сейчас на конференции

Сейчас этот форум просматривают: нет зарегистрированных пользователей и 4 гостя