Афера по-американски / American Hustle (2013) BDRip 720p | Лицензия скачать бесплатно торрент

Фильмы высокого разрешения в формате HD
Торрент [ Статус: Проверен ] Скачать Сидеров Личеров Размер
American.Hustle.2013.BD.720.mkv.torrent
1204 157 4.37 ГБ
Аватара пользователя
admin
Администратор
Администратор
Сообщения: 11037
Зарегистрирован: 13 дек 2013, 01:15
Благодарил (а): 7 раз
Контактная информация:

Афера по-американски / American Hustle (2013) BDRip 720p | Лицензия

Сообщение admin » 20 мар 2014, 19:49

Информация о фильме
Название: Афера по-американски
Оригинальное название: American Hustle
Год выхода: 2013
Жанр: драма, комедия
Режиссер: Дэвид О. Расселл

В ролях: Кристиан Бэйл, Брэдли Купер, Эми Адамс, Джереми Реннер, Дженнифер Лоуренс, Луис С.К., Джек Хьюстон, Майкл Пенья, Ши Уигхэм

О ФИЛЬМЕ
В основе сюжета фильма реальная спецоперация, проводимая в конце 70-х — начале 80-х ФБР под кодовым названием Abscam. Она изначально была нацелена на расследование торговли краденым товаром. ФБР собиралось внедрить в преступную среду своих агентов под видом посредников, скупающих краденые шедевры для богатых коллекционеров Ближнего Востока. Впоследствии операция превратилась в изобличение коррупции на разных уровнях.



Страна: США
Производство: Annapurna Pictures, Atlas Entertainment
Продолжительность: 02:18:04
Перевод: Профессиональный [Лицензия]

Файл
Качество: BDRip 720p
Формат: MKV
Видео: AVC, 1280x534 (2.40:1) at 23.976 fps, AVC at 4080 kbps avg, 0.249 bit/pixel
Аудио: AC3 / 6ch / 448 kbps | Лицензия
Субтитры: Русские
Дополнительно: Сохранены оригинальные чаптеры как на Blu-Ray
General
Unique ID : 210179762103165601475147175293490377585 (0x9E1F265644FA278DBCEBD01029613371)
Complete name : H:American.Hustle.2013.BD.720.mkv
Format : Matroska
Format version : Version 2
File size : 4.37 GiB
Duration : 02:18:04
Overall bit rate : 4 529 Kbps
Encoded date : UTC 2014-03-19 17:27:16
Writing application : mkvmerge v5.8.0 ('No Sleep / Pillow') built on Sep 2 2012 15:37:04
Writing library : libebml v1.2.3 + libmatroska v1.3.0
Attachment : Yes

Video
ID : 1
Format : AVC
Format/Info : Advanced Video Codec
Format profile : High@L4.1
Format settings, CABAC : Yes
Format settings, ReFrames : 11 frames
Codec ID : V_MPEG4/ISO/AVC
Duration : 2h 18mn
Bit rate : 4 080 Kbps
Width : 1 280 pixels
Height : 534 pixels
Display aspect ratio : 2.40:1
Frame rate mode : Constant
Frame rate : 23.976 fps
Color space : YUV
Chroma subsampling : 4:2:0
Bit depth : 8 bits
Scan type : Progressive
Bits/(Pixel*Frame) : 0.249
Stream size : 3.85 GiB (88%)
Writing library : x264 core 138 r2358 9e941d1
Encoding settings : cabac=1 / ref=11 / deblock=1:-3:-3 / analyse=0x3:0x113 / me=umh / subme=11 / psy=1 / psy_rd=1.00:0.10 / mixed_ref=1 / me_range=32 / chroma_me=1 / trellis=2 / 8x8dct=1 / cqm=0 / deadzone=21,11 / fast_pskip=0 / chroma_qp_offset=-3 / threads=2 / lookahead_threads=1 / sliced_threads=0 / nr=0 / decimate=0 / interlaced=0 / bluray_compat=0 / constrained_intra=0 / bframes=8 / b_pyramid=2 / b_adapt=2 / b_bias=0 / direct=3 / weightb=1 / open_gop=0 / weightp=2 / keyint=240 / keyint_min=23 / scenecut=40 / intra_refresh=0 / rc_lookahead=40 / rc=2pass / mbtree=0 / bitrate=4080 / ratetol=1.0 / qcomp=0.60 / qpmin=0 / qpmax=69 / qpstep=4 / cplxblur=20.0 / qblur=0.5 / vbv_maxrate=50000 / vbv_bufsize=62500 / nal_hrd=none / ip_ratio=1.40 / pb_ratio=1.30 / aq=1:1.00
Language : English
Default : Yes
Forced : No

Audio
ID : 2
Format : AC-3
Format/Info : Audio Coding 3
Mode extension : CM (complete main)
Format settings, Endianness : Big
Codec ID : A_AC3
Duration : 2h 18mn
Bit rate mode : Constant
Bit rate : 448 Kbps
Channel(s) : 6 channels
Channel positions : Front: L C R, Side: L R, LFE
Sampling rate : 48.0 KHz
Bit depth : 16 bits
Compression mode : Lossy
Stream size : 442 MiB (10%)
Language : Russian
Default : Yes
Forced : No

Text
ID : 3
Format : UTF-8
Codec ID : S_TEXT/UTF8
Codec ID/Info : UTF-8 Plain Text
Title : Doctor Joker
Language : Russian
Default : No
Forced : No

Menu
00:00:00.000 : :Chapter 01
00:07:12.641 : :Chapter 02
00:14:11.142 : :Chapter 03
00:24:08.822 : :Chapter 04
00:31:28.970 : :Chapter 05
00:39:16.104 : :Chapter 06
00:48:40.334 : :Chapter 07
00:57:01.001 : :Chapter 08
01:06:18.600 : :Chapter 09
01:15:30.943 : :Chapter 10
01:24:12.756 : :Chapter 11
01:33:09.793 : :Chapter 12
01:41:35.089 : :Chapter 13
01:51:45.824 : :Chapter 14
02:00:25.301 : :Chapter 15
02:09:50.992 : :Chapter 16

Как скачать!

  • Похожие темы
    Ответы
    Просмотры
    Последнее сообщение

Вернуться в «Фильмы HD»

Кто сейчас на конференции

Сейчас этот форум просматривают: нет зарегистрированных пользователей и 2 гостя