Повестка в суд / Summoned (2013) WEB-DL 720p | L1 скачать бесплатно торрент

Фильмы высокого разрешения в формате HD
Торрент [ Статус: Проверен ] Скачать Сидеров Личеров Размер
Summoned.2013.WEB-DL.720p.mkv.torrent
576 87 2.99 ГБ
Аватара пользователя
admin
Администратор
Администратор
Сообщения: 11123
Зарегистрирован: 13 дек 2013, 01:15
Благодарил (а): 7 раз
Контактная информация:

Повестка в суд / Summoned (2013) WEB-DL 720p | L1

Сообщение admin » 20 мар 2014, 20:39

Информация о фильме
Название: Повестка в суд
Оригинальное название: Summoned
Год выхода: 2013
Жанр: триллер
Режиссер: Питер Салливан
В ролях: Кьюба Гудинг мл., Эшли Скотт, Бэйли Чейз, Джеймс Хонг, Тичина Арнольд, Аманда Перез, Тим Эбелл, Скотт Уайт, Энни Литтл, Марк ДеКарло

О фильме:
Судебный процесс над Саймоном Бурдиасом, обвиняемым в серии жестоких убийств, завершается единогласным решением дюжины присяжных: «Виновен!», и теперь маньяку предстоит всю оставшуюся жизнь провести в тюрьме. Но пять лет спустя Саймон совершает дерзкий побег и оказывается на свободе. Он встаёт на путь мести и начинает одного за другим убивать свидетелей, вынесших ему обвинительный приговор...



Выпущено: США
Продолжительность: 01:29:39
Озвучивание: Любительское (одноголосое) [Barin101]

Файл
Формат: MKV
Качество: WEB-DL 720p [PHD]
Видео: 4105 kb/s, 1280x718

Аудио:
Russian: AC3, 192 kb/s (2 ch)
English: AC3, 384 kb/s (6 ch)

Субтитры: English
Дополнительно: Сохранены оригинальные чаптеры как на Blu-Ray
Общее
Summoned.2013.WEB-DL.720p.mkv
Формат : Matroska
Версия формата : Version 4 / Version 2
Размер файла : 2,99 Гбайт
Продолжительность : 1 ч. 29 м.
Общий поток : 4776 Кбит/сек
Название фильма : Summoned
Дата кодирования : UTC 2014-03-18 23:49:01
Программа кодирования : mkvmerge v6.8.0 ('Theme for Great Cities') 64bit built on Mar 2 2014 21:34:26
Библиотека кодирования : libebml v1.3.0 + libmatroska v1.4.1

Видео
Идентификатор : 1
Формат : AVC
Формат/Информация : Advanced Video Codec
Профиль формата : High@L3.1
Параметр CABAC формата : Нет
Параметр ReFrames формата : 2 кадра
Идентификатор кодека : V_MPEG4/ISO/AVC
Продолжительность : 1 ч. 29 м.
Битрейт : 4105 Кбит/сек
Ширина : 1280 пикселей
Высота : 718 пикселей
Соотношение сторон : 16:9
Режим частоты кадров : Постоянный
Частота кадров : 23,976 кадра/сек
Цветовое пространство : YUV
Субдискретизация насыщенности : 4:2:0
Битовая глубина : 8 бит
Тип развёртки : Прогрессивная
Бит/(Пиксели*Кадры) : 0.186
Размер потока : 2,57 Гбайт (86%)

Язык : English
Default : Да
Forced : Нет
Основные цвета : BT.709
Характеристики трансфера : BT.709
Коэффициенты матрицы : BT.709

Аудио #1
Идентификатор : 2
Формат : AC-3
Формат/Информация : Audio Coding 3
Расширение режима : CM (complete main)
Параметр Endianness формата : Big
Идентификатор кодека : A_AC3
Продолжительность : 1 ч. 29 м.
Вид битрейта : Постоянный
Битрейт : 192 Кбит/сек
Каналы : 2 канала
Расположение каналов : Front: L R
Частота : 48,0 КГц
Битовая глубина : 16 бит
Метод сжатия : С потерями
Размер потока : 123 Мбайт (4%)
Заголовок : Barin101
Язык : Russian
Default : Нет
Forced : Нет

Аудио #2
Идентификатор : 3
Формат : AC-3
Формат/Информация : Audio Coding 3
Расширение режима : CM (complete main)
Параметр Endianness формата : Big
Идентификатор кодека : A_AC3
Продолжительность : 1 ч. 29 м.
Вид битрейта : Постоянный
Битрейт : 384 Кбит/сек
Каналы : 6 каналов
Расположение каналов : Front: L C R, Side: L R, LFE
Частота : 48,0 КГц
Битовая глубина : 16 бит
Метод сжатия : С потерями
Размер потока : 246 Мбайт (8%)
Язык : English
Default : Нет
Forced : Нет

Текст
Идентификатор : 4
Формат : UTF-8
Идентификатор кодека : S_TEXT/UTF8
Идентификатор кодека/Информация : UTF-8 Plain Text
Язык : English
Default : Нет
Forced : Нет

Меню
00:00:00.000 : en:Chapter 1
00:03:58.000 : en:Chapter 2
00:13:11.000 : en:Chapter 3
00:22:40.000 : en:Chapter 4
00:30:52.000 : en:Chapter 5
00:40:18.000 : en:Chapter 6
00:49:13.000 : en:Chapter 7
00:57:39.000 : en:Chapter 8
01:05:35.000 : en:Chapter 9
01:14:07.000 : en:Chapter 10
01:22:08.000 : en:Chapter 11
01:27:26.000 : en:Chapter 12
Сэмпл - http://yadi.sk/d/P8fMbdi8KnLrd

Как скачать!

  • Похожие темы
    Ответы
    Просмотры
    Последнее сообщение

Вернуться в «Фильмы HD»

Кто сейчас на конференции

Сейчас этот форум просматривают: Google [Bot] и 2 гостя