Эмпайр Стэйт / Empire State (2013) BDRip 1080р | P | Лицензия скачать бесплатно торрент

Фильмы высокого разрешения в формате HD
Торрент [ Статус: Проверен ] Скачать Сидеров Личеров Размер
Empire_State.BDRip_1080p.mkv.torrent
300 173 9.74 ГБ
Аватара пользователя
admin
Администратор
Администратор
Сообщения: 11002
Зарегистрирован: 13 дек 2013, 01:15
Благодарил (а): 7 раз
Контактная информация:

Эмпайр Стэйт / Empire State (2013) BDRip 1080р | P | Лицензия

Сообщение admin » 21 мар 2014, 19:31

Страна: США
Студия: 24P Media Group, Emmett/Furla Films, Envision Entertainment Corporation...
Жанр: криминал, драма
Год выпуска: 2013
Продолжительность: 01:34:20

Перевод: Профессиональный (многоголосый закадровый) [Лицензия, R5] + Двухголосый + Авторский (Володарский)
Cубтитры: английские
Оригинальная аудиодорожка: английская

Режиссер: Дито Монтиель / Dito Montiel

В ролях: Лиам Хемсворт, Майкл Ангарано, Дуэйн Джонсон, Грегори Николас Вротсос, Джерри Феррара, Эмма Робертс, Майкл Рисполи, Пол Бен-Виктор, Шэрон Анджела, Крис, Диамантополос...



Изображение

Описание:
В этом триллере, основанном на реальных событиях, речь пойдет о произошедшем в 1982 году в Нью-Йорке ограблении инкассаторских бронеавтомобилей, которое на тот момент считалось крупнейшим в США.

Качество видео: BDRip 1080р (исходник: Empair.Steyt.2013.P.BDRemux.1080p.New-Team.mkv)
Контейнер: MKV
Видео кодек: x264
Аудио кодек: AC3

Видео: AVC / High@L4.1 / 2 pass / 23,976 fps / 1920x800p (2,40:1) / 7,0 Mbps / 0.190
Аудио 1: AC3 / 5.1 / 48 kHz / 448 kbps / Русский |MVO|
Аудио 2: AC3 / 5.1 / 48 kHz / 448 kbps / 16 bits Русский |DVO|
Аудио 3:DTS-HD Master Audio / 5.1 / 48 kHz / 3455 kbps / 24 bits (DTS Core: 5.1 / 48 kHz / 1509 kbps / 24 bits) Русский |Л. Володарский|
Аудио 4: DTS-HD Master Audio / 5.1 / 48 kHz / 3432 kbps / 24 bits (DTS Core: 5.1 / 48 kHz / 1509 kbps / 24 bits) Английский |original|

Формат субтитров: [softsub SRT]
Английские Full
Английские SDH

Дополнительно: Сохранены оригинальные чаптеры (главы) как на Blu-ray
Общее
Уникальный идентификатор : 193830034827514190294575311222741103729 (0x91D24E8BBA95E03789F21E26FC5F7471)
Полное имя : C:Users1Empire State.BDRip_1080p.mkv
Формат : Matroska
Версия формата : Version 2
Размер файла : 9,74 Гбайт
Продолжительность : 1 ч. 34 м.
Режим общего битрейта : Переменный
Общий поток : 14,8 Мбит/сек
Название фильма : Empair.Steyt.2013.P.BDRip_1080p.By_Flash
Дата кодирования : UTC 2014-03-20 14:15:22
Программа кодирования : mkvmerge v5.8.0 ('No Sleep / Pillow') built on Sep 2 2012 15:37:04
Библиотека кодирования : libebml v1.2.3 + libmatroska v1.3.0

Видео
Идентификатор : 1
Формат : AVC
Формат/Информация : Advanced Video Codec
Профиль формата : High@L4.1
Параметр CABAC формата : Да
Параметр ReFrames формата : 4 кадра
Идентификатор кодека : V_MPEG4/ISO/AVC
Продолжительность : 1 ч. 34 м.
Номинальный битрейт : 7000 Кбит/сек
Ширина : 1920 пикселей
Высота : 800 пикселей
Соотношение сторон : 2,40:1
Режим частоты кадров : Постоянный
Частота кадров : 23,976 кадра/сек
Цветовое пространство : YUV
Субдискретизация насыщенности : 4:2:0
Битовая глубина : 8 бит
Тип развёртки : Прогрессивная
Бит/(Пиксели*Кадры) : 0.190
Библиотека кодирования : x264 core 138 r2356 a1d3d17
Настройки программы : cabac=1 / ref=4 / deblock=1:-3:-3 / analyse=0x3:0x113 / me=umh / subme=10 / psy=1 / psy_rd=1.00:0.05 / mixed_ref=1 / me_range=32 / chroma_me=1 / trellis=2 / 8x8dct=1 / cqm=0 / deadzone=21,11 / fast_pskip=0 / chroma_qp_offset=-3 / threads=6 / lookahead_threads=1 / sliced_threads=0 / nr=0 / decimate=0 / interlaced=0 / bluray_compat=0 / constrained_intra=0 / bframes=8 / b_pyramid=2 / b_adapt=2 / b_bias=0 / direct=3 / weightb=1 / open_gop=0 / weightp=2 / keyint=240 / keyint_min=24 / scenecut=40 / intra_refresh=0 / rc_lookahead=40 / rc=2pass / mbtree=1 / bitrate=7000 / ratetol=1.0 / qcomp=0.60 / qpmin=10 / qpmax=51 / qpstep=4 / cplxblur=20.0 / qblur=0.5 / vbv_maxrate=50000 / vbv_bufsize=50000 / nal_hrd=none / ip_ratio=1.40 / aq=1:0.80
Default : Да
Forced : Нет

Аудио #1
Идентификатор : 2
Формат : AC-3
Формат/Информация : Audio Coding 3
Расширение режима : CM (complete main)
Параметр Endianness формата : Big
Идентификатор кодека : A_AC3
Продолжительность : 1 ч. 34 м.
Вид битрейта : Постоянный
Битрейт : 448 Кбит/сек
Каналы : 6 каналов
Расположение каналов : Front: L C R, Side: L R, LFE
Частота : 48,0 КГц
Битовая глубина : 16 бит
Метод сжатия : С потерями
Размер потока : 303 Мбайт (3%)
Default : Да
Forced : Нет

Аудио #2
Идентификатор : 3
Формат : AC-3
Формат/Информация : Audio Coding 3
Расширение режима : CM (complete main)
Параметр Endianness формата : Big
Идентификатор кодека : A_AC3
Продолжительность : 1 ч. 34 м.
Вид битрейта : Постоянный
Битрейт : 448 Кбит/сек
Каналы : 6 каналов
Расположение каналов : Front: L C R, Side: L R, LFE
Частота : 48,0 КГц
Битовая глубина : 16 бит
Метод сжатия : С потерями
Размер потока : 303 Мбайт (3%)
Заголовок : MVO
Default : Нет
Forced : Нет

Аудио #3
Идентификатор : 4
Формат : DTS
Формат/Информация : Digital Theater Systems
Профиль формата : MA / Core
Режим : 16
Параметр Endianness формата : Big
Идентификатор кодека : A_DTS
Продолжительность : 1 ч. 34 м.
Вид битрейта : Переменный
Битрейт : Неизвестно / 1509 Кбит/сек
Каналы : 6 каналов
Расположение каналов : Front: L C R, Side: L R, LFE
Частота : 48,0 КГц
Битовая глубина : 24 бит
Метод сжатия : Без потерь / Lossy
Заголовок : Володарский
Default : Нет
Forced : Нет

Аудио #4
Идентификатор : 5
Формат : DTS
Формат/Информация : Digital Theater Systems
Профиль формата : MA / Core
Режим : 16
Параметр Endianness формата : Big
Идентификатор кодека : A_DTS
Продолжительность : 1 ч. 34 м.
Вид битрейта : Переменный
Битрейт : Неизвестно / 1509 Кбит/сек
Каналы : 6 каналов
Расположение каналов : Front: L C R, Side: L R, LFE
Частота : 48,0 КГц
Битовая глубина : 24 бит
Метод сжатия : Без потерь / Lossy
Заголовок : Оригинал
Default : Нет
Forced : Нет

Текст #1
Идентификатор : 6
Формат : UTF-8
Идентификатор кодека : S_TEXT/UTF8
Идентификатор кодека/Информация : UTF-8 Plain Text
Заголовок : Full.Eng
Default : Нет
Forced : Нет

Текст #2
Идентификатор : 7
Формат : UTF-8
Идентификатор кодека : S_TEXT/UTF8
Идентификатор кодека/Информация : UTF-8 Plain Text
Заголовок : SDH.Eng
Default : Нет
Forced : Нет

Меню
00:00:00.000 : :Chapter 01
00:06:06.157 : :Chapter 02
00:13:03.032 : :Chapter 03
00:19:22.995 : :Chapter 04
00:22:39.775 : :Chapter 05
00:27:36.071 : :Chapter 06
00:33:38.766 : :Chapter 07
00:39:55.017 : :Chapter 08
00:46:00.382 : :Chapter 09
00:52:26.143 : :Chapter 10
00:59:47.375 : :Chapter 11
01:06:38.703 : :Chapter 12
01:12:29.887 : :Chapter 13
01:20:12.808 : :Chapter 14
01:25:26.746 : :Chapter 15
01:29:23.900 : :Chapter 16

Как скачать!

  • Похожие темы
    Ответы
    Просмотры
    Последнее сообщение

Вернуться в «Фильмы HD»

Кто сейчас на конференции

Сейчас этот форум просматривают: Yandex [Bot] и 2 гостя