Внутри Льюина Дэвиса / Inside Llewyn Davis (2013) BDRip 720p | D | лицензия скачать бесплатно торрент

Фильмы высокого разрешения в формате HD
Торрент [ Статус: Проверен ] Скачать Сидеров Личеров Размер
Vnutri.Lyuina.Devisa.2013.D.BDRip.720p.torrent
146 34 5.29 ГБ
Аватара пользователя
admin
Администратор
Администратор
Сообщения: 11037
Зарегистрирован: 13 дек 2013, 01:15
Благодарил (а): 7 раз
Контактная информация:

Внутри Льюина Дэвиса / Inside Llewyn Davis (2013) BDRip 720p | D | лицензия

Сообщение admin » 22 мар 2014, 16:57

Страна: США, Великобритания, Франция / Mike Zoss Productions, Scott Rudin Productions, StudioCanal
Жанр: драма, музыка
Год выпуска: 2013
Продолжительность: 01:44:36
Перевод: Профессиональный (дублированный)
Cубтитры: русский, английский
Оригинальная аудиодорожка: английский

Режиссер: Итан Коэн / Ethan Coen, Джоэл Коэн / Joel Coen

В ролях: Оскар Айзек, Кэри Маллиган, Итэн Филлипс, Робин Бартлетт, Джон Гудман, Джастин Тимберлэйк, Макс Казелла, Гаррет Хедлунд, Джерри Грэйсон, Ф. Мюррэй Абрахам...

Роли дублировали: Даниил Эльдаров, Наталья Фищук, Ирина Киреева, Александр Новиков, Илья Бледный...

Описание: Богемные кварталы Манхэттена и клубы табачного дыма, пыльные дороги Америки и гигантские тиражи винила… Нью-Йорк. Конец 50-х.
Льюин Дэвис, талантливый певец и гитарист из Квинса, с трудом перебивается между выступлениями в клубах Гринвич-Виллиджа, редкими записями на радио. Без дома и денег, запутавшись в любви, почти потеряв связь с семьей, он странствует по жизни в поисках себя. И не находит. Все, что у него есть — это музыка. Удастся ли разгадать тайны его музыки? Что там, внутри Льюина Дэвиса?




Качество: BDRip-AVC / Inside.Llewyn.Davis.2013.D.Blu-Ray.Remux.(1080p) + DVD9 R5
Формат: MKV

Видео: 1280x690 (1.85:1), 23.976 fps, H264 ~ 5345 kbps avg, 0.252 bit/pixel
Аудио 1: 48 kHz, Dolby AC3, 6 ch, 384 kbps, русский
Аудио 2: 48 kHz, DTS, 6 ch, 1536 kbps, английский
Формат субтитров: SoftSub (srt)

Дополнительно: Фильм разбит на главы, как на оригинальном Blu-ray диске.
Общее
Полное имя : Vnutri.Lyuina.Devisa.2013.D.BDRip.720p.mkv
Формат : Matroska
Версия формата : Version 4 / Version 2
Размер файла : 5,29 Гбайт
Продолжительность : 1 ч. 44 м.
Общий поток : 7241 Кбит/сек
Дата кодирования : UTC 2014-03-22 12:03:10
Программа кодирования : mkvmerge v6.8.0 ('Theme for Great Cities') 64bit built on Mar 2 2014 21:34:26
Библиотека кодирования : libebml v1.3.0 + libmatroska v1.4.1

Видео
Идентификатор : 1
Формат : AVC
Формат/Информация : Advanced Video Codec
Профиль формата : High@L4.1
Параметр CABAC формата : Да
Параметр ReFrames формата : 9 кадров
Идентификатор кодека : V_MPEG4/ISO/AVC
Продолжительность : 1 ч. 44 м.
Битрейт : 5345 Кбит/сек
Ширина : 1280 пикселей
Высота : 690 пикселей
Соотношение сторон : 1,85:1
Режим частоты кадров : Постоянный
Частота кадров : 23,976 кадра/сек
Цветовое пространство : YUV
Субдискретизация насыщенности : 4:2:0
Битовая глубина : 8 бит
Тип развёртки : Прогрессивная
Бит/(Пиксели*Кадры) : 0.252
Размер потока : 3,80 Гбайт (72%)
Библиотека кодирования : x264 core 138 r2358 9e941d1
Настройки программы : cabac=1 / ref=9 / deblock=1:-3:-3 / analyse=0x3:0x113 / me=umh / subme=11 / psy=1 / psy_rd=1.10:0.15 / mixed_ref=1 / me_range=32 / chroma_me=1 / trellis=2 / 8x8dct=1 / cqm=0 / deadzone=21,11 / fast_pskip=0 / chroma_qp_offset=-2 / threads=18 / lookahead_threads=1 / sliced_threads=0 / nr=0 / decimate=1 / interlaced=0 / bluray_compat=0 / constrained_intra=0 / bframes=6 / b_pyramid=2 / b_adapt=2 / b_bias=0 / direct=3 / weightb=1 / open_gop=0 / weightp=2 / keyint=250 / keyint_min=23 / scenecut=40 / intra_refresh=0 / rc_lookahead=40 / rc=2pass / mbtree=0 / bitrate=5345 / ratetol=1.0 / qcomp=0.60 / qpmin=0 / qpmax=69 / qpstep=4 / cplxblur=20.0 / qblur=0.5 / vbv_maxrate=40000 / vbv_bufsize=30000 / nal_hrd=none / ip_ratio=1.40 / pb_ratio=1.30 / aq=1:0.80
Язык : English
Default : Да
Forced : Нет

Аудио #1
Идентификатор : 2
Формат : AC-3
Формат/Информация : Audio Coding 3
Расширение режима : CM (complete main)
Параметр Endianness формата : Big
Идентификатор кодека : A_AC3
Продолжительность : 1 ч. 44 м.
Вид битрейта : Постоянный
Битрейт : 384 Кбит/сек
Каналы : 6 каналов
Расположение каналов : Front: L C R, Side: L R, LFE
Частота : 48,0 КГц
Битовая глубина : 16 бит
Метод сжатия : С потерями
Размер потока : 287 Мбайт (5%)
Язык : Russian
Default : Да
Forced : Нет

Аудио #2
Идентификатор : 3
Формат : DTS
Формат/Информация : Digital Theater Systems
Режим : 16
Параметр Endianness формата : Big
Идентификатор кодека : A_DTS
Продолжительность : 1 ч. 44 м.
Вид битрейта : Постоянный
Битрейт : 1509 Кбит/сек
Каналы : 6 каналов
Расположение каналов : Front: L C R, Side: L R, LFE
Частота : 48,0 КГц
Битовая глубина : 24 бит
Метод сжатия : С потерями
Размер потока : 1,10 Гбайт (21%)
Язык : English
Default : Нет
Forced : Нет

Текст #1
Идентификатор : 4
Формат : UTF-8
Идентификатор кодека : S_TEXT/UTF8
Идентификатор кодека/Информация : UTF-8 Plain Text
Язык : Russian
Default : Нет
Forced : Нет

Текст #2
Идентификатор : 5
Формат : UTF-8
Идентификатор кодека : S_TEXT/UTF8
Идентификатор кодека/Информация : UTF-8 Plain Text
Язык : English
Default : Нет
Forced : Нет

Меню
00:00:00.000 : en:00:00:00.000
00:06:51.703 : en:00:06:51.703
00:12:45.765 : en:00:12:45.765
00:19:14.653 : en:00:19:14.653
00:25:13.137 : en:00:25:13.137
00:33:35.055 : en:00:33:35.055
00:40:02.817 : en:00:40:02.817
00:47:30.806 : en:00:47:30.806
00:56:05.946 : en:00:56:05.946
01:00:08.313 : en:01:00:08.313
01:03:38.648 : en:01:03:38.648
01:13:12.930 : en:01:13:12.930
01:16:57.947 : en:01:16:57.947
01:22:59.600 : en:01:22:59.600
01:27:14.855 : en:01:27:14.855
01:33:03.661 : en:01:33:03.661

Как скачать!

  • Похожие темы
    Ответы
    Просмотры
    Последнее сообщение

Вернуться в «Фильмы HD»

Кто сейчас на конференции

Сейчас этот форум просматривают: нет зарегистрированных пользователей и 3 гостя