Летняя сказка / Conte d'ete (1996) BDRip 720p | P скачать бесплатно торрент

Фильмы высокого разрешения в формате HD
Торрент [ Статус: Проверен ] Скачать Сидеров Личеров Размер
Letnjaja_skazka.1996.x264.BDRip.720p.mkv.torrent
0 2 4.52 ГБ
Аватара пользователя
admin
Администратор
Администратор
Сообщения: 11032
Зарегистрирован: 13 дек 2013, 01:15
Благодарил (а): 7 раз
Контактная информация:

Летняя сказка / Conte d'ete (1996) BDRip 720p | P

Сообщение admin » 23 мар 2014, 11:23

Название: Летняя сказка
Оригинальное название: Conte d'été
Год выпуска: 1996
Жанр: Драма, мелодрама, комедия
Выпущено: Франция, Canal+ [fr], La Sept Cinéma, Les Films du Losange, Sofilmka
Режиссер: Эрик Ромер
В ролях: Мельвиль Пупо, Аманда Лангле, Гвенэль Симон, Орель Нолин, Аиме Лефевр, Ален Гюллафф, Эвелин Лахана, Ив Герин, Франк Сабот

О фильме: Застенчивый математик Гаспар ждёт, что к нему на летние каникулы присоединится девушка Лена, а тем временем встречает некую Марго — студентку, изучающую энтомологию и подрабатывающую официанткой. Спустя какое-то время Марго берет Гаспара с собой на вечеринку, где он знакомится с ещё одной девушкой - Солин. И когда Гаспар уже полностью запутывается в своих чувствах к обеим, к нему наконец приезжает, некогда долгожданная, Лена… Авторское кино Эрика Ромера. Второй фильм из цикла "Сказки о временах года".



Качество: BDRip 720p
Видео: MPEG-4 AVC, 5158 Кбит/с, 958x720
Аудио: Русский (AC3, 2 ch, 224 Кбит/с), фрацузcкий (AC3, 1 ch, 192 Кбит/с)

Продолжительность: 01:53:45
Перевод: Профессиональный многоголосый (Кармен Видео)
Субтитры: Русские, английские

Имеются поименованные главы/чаптеры.
Общее
Уникальный идентификатор : 212667315531387657313715305713518790312 (0x9FFE3C30A7FD42349FA616540CFC46A8)
Полное имя : D:VideoLetnjaja skazka.1996.x264.BDRip.720p.mkv
Формат : Matroska
Версия формата : Version 4 / Version 2
Размер файла : 4,52 Гбайт
Продолжительность : 1 ч. 53 м.
Общий поток : 5687 Кбит/сек
Дата кодирования : UTC 2014-03-23 05:59:19
Программа кодирования : mkvmerge v6.7.0 ('Back to the Ground') 64bit built on Jan 8 2014 15:10:52
Библиотека кодирования : libebml v1.3.0 + libmatroska v1.4.1

Видео
Идентификатор : 1
Формат : AVC
Формат/Информация : Advanced Video Codec
Профиль формата : High@L4.1
Параметр CABAC формата : Да
Параметр ReFrames формата : 9 кадров
Идентификатор кодека : V_MPEG4/ISO/AVC
Продолжительность : 1 ч. 53 м.
Битрейт : 5158 Кбит/сек
Ширина : 958 пикселей
Высота : 720 пикселей
Соотношение сторон : 4:3
Режим частоты кадров : Постоянный
Частота кадров : 24,000 кадра/сек
Цветовое пространство : YUV
Субдискретизация насыщенности : 4:2:0
Битовая глубина : 8 бит
Тип развёртки : Прогрессивная
Бит/(Пиксели*Кадры) : 0.312
Размер потока : 4,10 Гбайт (91%)
Заголовок : BDRip -- STarankov
Библиотека кодирования : x264 core 138 r2358 9e941d1
Настройки программы : cabac=1 / ref=9 / deblock=1:-1:-1 / analyse=0x3:0x113 / me=umh / subme=10 / psy=1 / psy_rd=1.00:0.15 / mixed_ref=1 / me_range=24 / chroma_me=1 / trellis=2 / 8x8dct=1 / cqm=0 / deadzone=21,11 / fast_pskip=0 / chroma_qp_offset=-3 / threads=6 / lookahead_threads=1 / sliced_threads=0 / nr=0 / decimate=1 / interlaced=0 / bluray_compat=0 / constrained_intra=0 / bframes=6 / b_pyramid=2 / b_adapt=2 / b_bias=0 / direct=1 / weightb=1 / open_gop=0 / weightp=2 / keyint=230 / keyint_min=23 / scenecut=40 / intra_refresh=0 / rc_lookahead=40 / rc=crf / mbtree=0 / crf=20.0 / qcomp=0.60 / qpmin=0 / qpmax=69 / qpstep=4 / vbv_maxrate=40000 / vbv_bufsize=50000 / crf_max=0.0 / nal_hrd=none / ip_ratio=1.40 / pb_ratio=1.30 / aq=1:1.00
Язык : French
Default : Да
Forced : Нет

Аудио #1
Идентификатор : 2
Формат : AC-3
Формат/Информация : Audio Coding 3
Расширение режима : CM (complete main)
Параметр Endianness формата : Big
Идентификатор кодека : A_AC3
Продолжительность : 1 ч. 53 м.
Вид битрейта : Постоянный
Битрейт : 224 Кбит/сек
Каналы : 2 канала
Расположение каналов : Front: L R
Частота : 48,0 КГц
Битовая глубина : 16 бит
Метод сжатия : С потерями
Размер потока : 182 Мбайт (4%)
Заголовок : MVO (Кармен Видео)
Язык : Russian
Default : Да
Forced : Нет

Аудио #2
Идентификатор : 3
Формат : AC-3
Формат/Информация : Audio Coding 3
Расширение режима : CM (complete main)
Параметр Endianness формата : Big
Идентификатор кодека : A_AC3
Продолжительность : 1 ч. 53 м.
Вид битрейта : Постоянный
Битрейт : 192 Кбит/сек
Каналы : 1 канал
Расположение каналов : Front: C
Частота : 48,0 КГц
Битовая глубина : 16 бит
Метод сжатия : С потерями
Размер потока : 156 Мбайт (3%)
Заголовок : Original
Язык : French
Default : Нет
Forced : Нет

Текст #1
Идентификатор : 4
Формат : UTF-8
Идентификатор кодека : S_TEXT/UTF8
Идентификатор кодека/Информация : UTF-8 Plain Text
Заголовок : русский
Язык : Russian
Default : Нет
Forced : Нет

Текст #2
Идентификатор : 5
Формат : UTF-8
Идентификатор кодека : S_TEXT/UTF8
Идентификатор кодека/Информация : UTF-8 Plain Text
Заголовок : английский
Default : Нет
Forced : Нет

Меню
00:00:00.000 : fr:01. L'arrivée de Gaspard
00:08:02.532 : fr:02. Margot
00:14:19.865 : fr:03. Visite chez le vieux marin
00:21:18.782 : fr:04. Les confidences de Gaspard
00:28:11.615 : fr:05. Celle qui n'arrive pas
00:35:05.282 : fr:06. Promenade avec Margot
00:44:33.907 : fr:07. Solène
00:54:04.573 : fr:08. Sortire de mer
00:59:51.615 : fr:09. Projets de voyage à Ouessant
01:11:24.782 : fr:10. Lena
01:22:19.407 : fr:11. La dispute
01:30:56.823 : fr:12. Les doutes de Gaspard
01:38:31.698 : fr:13. Un jeune homme indécis
01:44:30.198 : fr:14. Conversations téléphoniques
01:49:17.073 : fr:15. Le départ de Gaspard

---[Information] [23.03.2014 4:25:25] raw [info]: 958x720p 1:1 @ 24/1 fps (cfr)
---[Information] [23.03.2014 4:25:25] x264 [info]: using SAR=1/1
---[Information] [23.03.2014 4:25:25] x264 [info]: using cpu capabilities: MMX2 SSE2Fast SSSE3 SSE4.2
---[Information] [23.03.2014 4:25:25] x264 [info]: profile High, level 4.1
---[Information] [23.03.2014 11:30:00] x264 [info]: frame I:894 Avg QP:21.52 size:100508
---[Information] [23.03.2014 11:30:00] x264 [info]: frame P:30803 Avg QP:22.83 size: 49555
---[Information] [23.03.2014 11:30:00] x264 [info]: frame B:132121 Avg QP:24.74 size: 21789
---[Information] [23.03.2014 11:30:00] x264 [info]: consecutive B-frames: 0.7% 0.6% 2.1% 13.6% 18.8% 54.8% 9.3%
---[Information] [23.03.2014 11:30:00] x264 [info]: mb I I16..4: 6.7% 81.8% 11.5%
---[Information] [23.03.2014 11:30:00] x264 [info]: mb P I16..4: 0.3% 19.3% 0.9% P16..4: 35.8% 27.9% 14.5% 0.0% 0.0% skip: 1.3%
---[Information] [23.03.2014 11:30:00] x264 [info]: mb B I16..4: 0.0% 2.8% 0.1% B16..8: 43.8% 14.3% 5.2% direct: 8.9% skip:24.8% L0:44.8% L1:45.0% BI:10.2%
---[Information] [23.03.2014 11:30:00] x264 [info]: 8x8 transform intra:93.8% inter:64.5%
---[Information] [23.03.2014 11:30:00] x264 [info]: coded y,uvDC,uvAC intra: 98.1% 81.9% 49.0% inter: 45.2% 25.7% 1.9%
---[Information] [23.03.2014 11:30:00] x264 [info]: i16 v,h,dc,p: 39% 11% 31% 19%
---[Information] [23.03.2014 11:30:00] x264 [info]: i8 v,h,dc,ddl,ddr,vr,hd,vl,hu: 7% 7% 15% 10% 13% 12% 13% 11% 13%
---[Information] [23.03.2014 11:30:00] x264 [info]: i4 v,h,dc,ddl,ddr,vr,hd,vl,hu: 10% 8% 2% 8% 16% 15% 16% 12% 13%
---[Information] [23.03.2014 11:30:00] x264 [info]: i8c dc,h,v,p: 40% 26% 19% 15%
---[Information] [23.03.2014 11:30:00] x264 [info]: Weighted P-Frames: Y:14.9% UV:2.7%
---[Information] [23.03.2014 11:30:00] x264 [info]: ref P L0: 34.8% 12.9% 19.0% 7.7% 7.6% 5.4% 5.6% 3.0% 3.4% 0.6% 0.0%
---[Information] [23.03.2014 11:30:00] x264 [info]: ref B L0: 67.8% 12.3% 6.9% 4.2% 3.4% 3.2% 1.6% 0.6%
---[Information] [23.03.2014 11:30:00] x264 [info]: ref B L1: 92.8% 7.2%
---[Information] [23.03.2014 11:30:00] x264 [info]: kb/s:5268.45
---[Information] [23.03.2014 11:30:00] encoded 163818 frames, 6.43 fps, 5268.45 kb/s
--[Information] [23.03.2014 11:30:01] Final statistics
---[Information] [23.03.2014 11:30:01] Constant Quality Mode: Quality 20 computed...
---[Information] [23.03.2014 11:30:01] Video Bitrate Obtained (approximate): 5270 kbit/s
--[Information] [23.03.2014 11:30:01] MediaInfo
---[Information] File: D:RipLetnjaja skazka.1996.x264.BDRipLetnjaja skazka.1996.x264.BDRip.720p.mkv

Как скачать!

  • Похожие темы
    Ответы
    Просмотры
    Последнее сообщение

Вернуться в «Фильмы HD»

Кто сейчас на конференции

Сейчас этот форум просматривают: нет зарегистрированных пользователей и 13 гостей