Лунатик / Meng you / Sleepwalker (2011) BDRip 1080p | L1 скачать бесплатно торрент

Фильмы высокого разрешения в формате HD
Торрент [ Статус: Проверен ] Скачать Сидеров Личеров Размер
Sleepwalker.2011.Blu.Ray.1080p.mkv.torrent
0 0 8.4 ГБ
Аватара пользователя
admin
Администратор
Администратор
Сообщения: 11117
Зарегистрирован: 13 дек 2013, 01:15
Благодарил (а): 7 раз
Контактная информация:

Лунатик / Meng you / Sleepwalker (2011) BDRip 1080p | L1

Сообщение admin » 23 мар 2014, 14:24

Информация о фильме
Название: Лунатик
Оригинальное название: Meng you / Sleepwalker
Год выхода: 2011
Жанр: мистика, триллер
Режиссер: Оксид Пан
В ролях: Кент Чэн, Сыянь Ко, Анджелика Ли, Хи Чинг Пав, Чарли Енг

О фильме:
Как может чувствовать себя мать, потерявшая ребёнка? Молодая женщина Йи, владелица швейной фабрики, всё ещё не оправилась после смерти своей маленькой дочери, которую два года назад похитили и убили. На протяжении всего этого времени Йи снится один и тот же сон. Она подозревает, что страдает лунатизмом и подтверждает это. Безумный взгляд, странные сны, ночные прогулки неизвестно куда... Но, возможно, её лунатизм поможет раскрыть похожее преступление с похищением ребёнка...



Выпущено: Гонконг
Продолжительность: 01:44:12
Озвучивание: Любительское (одноголосое) [datynet]

Файл
Формат: MKV
Качество: BDRip 1080p [CHD]
Видео: 9840 kb/s, 1920x1080
Аудио: Russian: AC3, 192 kb/s (2 ch) / Chinese: AC3, 640 kb/s (6 ch)
Субтитры: Russian [Svartkatt], English

Сэмпл - http://yadi.sk/d/XI1Evl9WL3MHK
Общее
Sleepwalker.2011.Blu.Ray.1080p.mkv
Формат : Matroska
Версия формата : Version 4 / Version 2
Размер файла : 8,40 Гбайт
Продолжительность : 1 ч. 44 м.
Общий поток : 11,5 Мбит/сек
Название фильма : Release Group CINEMANIA
Дата кодирования : UTC 2014-03-23 09:03:53
Программа кодирования : mkvmerge v6.8.0 ('Theme for Great Cities') 64bit built on Mar 2 2014 21:34:26
Библиотека кодирования : libebml v1.3.0 + libmatroska v1.4.1

Видео
Идентификатор : 1
Формат : AVC
Формат/Информация : Advanced Video Codec
Профиль формата : High@L4.1
Параметр CABAC формата : Да
Параметр ReFrames формата : 4 кадра
Идентификатор кодека : V_MPEG4/ISO/AVC
Продолжительность : 1 ч. 44 м.
Битрейт : 9840 Кбит/сек
Ширина : 1920 пикселей
Высота : 1080 пикселей
Соотношение сторон : 16:9
Режим частоты кадров : Постоянный
Частота кадров : 24,000 кадра/сек
Цветовое пространство : YUV
Субдискретизация насыщенности : 4:2:0
Битовая глубина : 8 бит
Тип развёртки : Прогрессивная
Бит/(Пиксели*Кадры) : 0.198
Размер потока : 6,99 Гбайт (83%)

Библиотека кодирования : x264 core 116 r2074 2641b9e
Настройки программы : cabac=1 / ref=4 / deblock=1:-3:-3 / analyse=0x3:0x113 / me=umh / subme=10 / psy=1 / psy_rd=1.00:0.00 / mixed_ref=1 / me_range=32 / chroma_me=1 / trellis=2 / 8x8dct=1 / cqm=0 / deadzone=21,11 / fast_pskip=0 / chroma_qp_offset=-1 / threads=8 / sliced_threads=0 / nr=0 / decimate=1 / interlaced=0 / bluray_compat=0 / constrained_intra=0 / bframes=6 / b_pyramid=2 / b_adapt=2 / b_bias=0 / direct=3 / weightb=1 / open_gop=0 / weightp=2 / keyint=250 / keyint_min=24 / scenecut=40 / intra_refresh=0 / rc_lookahead=40 / rc=2pass / mbtree=0 / bitrate=9840 / ratetol=1.0 / qcomp=0.70 / qpmin=0 / qpmax=69 / qpstep=4 / cplxblur=20.0 / qblur=0.5 / vbv_maxrate=40000 / vbv_bufsize=30000 / nal_hrd=none / ip_ratio=1.40 / pb_ratio=1.30 / aq=2:0.90
Язык : Chinese
Default : Нет
Forced : Нет

Аудио #1
Идентификатор : 2
Формат : AC-3
Формат/Информация : Audio Coding 3
Расширение режима : CM (complete main)
Параметр Endianness формата : Big
Идентификатор кодека : A_AC3
Продолжительность : 1 ч. 44 м.
Вид битрейта : Постоянный
Битрейт : 192 Кбит/сек
Каналы : 2 канала
Расположение каналов : Front: L R
Частота : 44,1 КГц
Битовая глубина : 16 бит
Метод сжатия : С потерями
Размер потока : 143 Мбайт (2%)
Заголовок : datynet
Язык : Russian
Default : Да
Forced : Да

Аудио #2
Идентификатор : 3
Формат : DTS
Формат/Информация : Digital Theater Systems
Режим : 16
Параметр Endianness формата : Big
Идентификатор кодека : A_DTS
Продолжительность : 1 ч. 44 м.
Вид битрейта : Постоянный
Битрейт : 1509 Кбит/сек
Каналы : 6 каналов
Расположение каналов : Front: L C R, Side: L R, LFE
Частота : 48,0 КГц
Битовая глубина : 24 бит
Метод сжатия : С потерями
Размер потока : 1,10 Гбайт (13%)
Язык : Chinese
Default : Нет
Forced : Нет

Текст #1
Идентификатор : 4
Формат : UTF-8
Идентификатор кодека : S_TEXT/UTF8
Идентификатор кодека/Информация : UTF-8 Plain Text
Заголовок : Svartkatt
Язык : Russian
Default : Нет
Forced : Нет

Текст #2
Идентификатор : 5
Формат : UTF-8
Идентификатор кодека : S_TEXT/UTF8
Идентификатор кодека/Информация : UTF-8 Plain Text
Язык : English
Default : Нет
Forced : Нет

Как скачать!

  • Похожие темы
    Ответы
    Просмотры
    Последнее сообщение

Вернуться в «Фильмы HD»

Кто сейчас на конференции

Сейчас этот форум просматривают: нет зарегистрированных пользователей и 6 гостей