Дело №39 / Case 39 (2009) BDRip 1080p скачать бесплатно торрент

Фильмы высокого разрешения в формате HD
Торрент [ Статус: Проверен ] Скачать Сидеров Личеров Размер
Delo_№39.2009.BDRip.1080p.mkv.torrent
193 44 7.76 ГБ
Аватара пользователя
admin
Администратор
Администратор
Сообщения: 11117
Зарегистрирован: 13 дек 2013, 01:15
Благодарил (а): 7 раз
Контактная информация:

Дело №39 / Case 39 (2009) BDRip 1080p

Сообщение admin » 23 мар 2014, 19:03

Название: Дело №39
Оригинальное название: Case 39
Год выпуска: 2009
Жанр: Мистический триллер, ужасы
Выпущено: США, Канада, Misher Films, Paramount Pictures, Anonymous Content
Режиссер: Кристиан Алверт
В ролях: Рене Зеллвегер, Иэн МакШейн, Джоделль Ферланд, Каллум Кит Ренни, Брэдли Купер, Керри О'Мэлли, Эдриэн Лестер, Джорджиа Крэйг, Синтия Стивенсон, Тиффани Линдэлл-Найт, Синди Сунгу, Филип Кабрита, Дж. Уинстон Кэрролл, Мэри Блэк, Сара-Джейн Редмонд, Бенита Ха, Сюзанн Бастьен, Колин Лоуренс, Эдриэн Хью, Ванеса Томазино

Перевод: Дублированный

Сюжет фильма
Социальный работник Эмили Дженкинс, с идеалистическими завихрениями в голове, спасает десятилетнюю замученную родителями девочку Лилит Салливан. Но когда вокруг начнут умирать люди, добрая женщина поймет, что речь заходит о демонах в обличье детей.



Файл
Качество: BDRip 1080p (исходник Blu-ray)
Видео: 1920x816, 8870 Кбит/сек, 23.976 кадр/сек, AVC, x264, High@L4.1, 0.236 Бит/[Пиксели*Кадры], 2pass
Аудио 1: AC3 5.1 48 kHz 640 kbps - Дублированный
Аудио 2: AC3 5.1 48 kHz 640 kbps - English


Чаптеры: есть
Субтитры: Russian
Продолжительность: 01:49:25
Format : Matroska
Format version : Version 2
File size : 7.76 GiB
Duration : 1h 49mn
Overall bit rate : 10.1 Mbps
Movie name : Delo №39.(2009).BDRip.1080p
Encoded date : UTC 2014-03-21 10:00:41
Writing application : mkvmerge v5.8.0 ('No Sleep / Pillow') built on Sep 2 2012 15:37:04
Writing library : libebml v1.2.3 + libmatroska v1.3.0

Video
ID : 1
Format : AVC
Format/Info : Advanced Video Codec
Format profile : High@L4.1
Format settings, CABAC : Yes
Format settings, ReFrames : 5 frames
Codec ID : V_MPEG4/ISO/AVC
Duration : 1h 49mn
Bit rate : 8 870 Kbps
Width : 1 920 pixels
Height : 816 pixels
Display aspect ratio : 2.35:1
Frame rate mode : Constant
Frame rate : 23.976 fps
Color space : YUV
Chroma subsampling : 4:2:0
Bit depth : 8 bits
Scan type : Progressive
Bits/(Pixel*Frame) : 0.236
Stream size : 6.62 GiB (85%)
Title : Delo №39.(2009).BDRip.1080p
Writing library : x264 core 138 r2358 9e941d1
Encoding settings : cabac=1 / ref=5 / deblock=1:-3:-3 / analyse=0x3:0x133 / me=umh / subme=11 / psy=1 / psy_rd=1.00:0.10 / mixed_ref=1 / me_range=32 / chroma_me=1 / trellis=2 / 8x8dct=1 / cqm=0 / deadzone=21,11 / fast_pskip=0 / chroma_qp_offset=-3 / threads=6 / lookahead_threads=1 / sliced_threads=0 / nr=0 / decimate=1 / interlaced=0 / bluray_compat=0 / constrained_intra=0 / bframes=8 / b_pyramid=2 / b_adapt=2 / b_bias=0 / direct=3 / weightb=1 / open_gop=0 / weightp=2 / keyint=240 / keyint_min=23 / scenecut=40 / intra_refresh=0 / rc=2pass / mbtree=0 / bitrate=8870 / ratetol=1.0 / qcomp=0.60 / qpmin=0 / qpmax=69 / qpstep=4 / cplxblur=20.0 / qblur=0.5 / ip_ratio=1.40 / pb_ratio=1.30 / aq=1:0.90
Language : English
Default : Yes
Forced : No

Audio #1
ID : 2
Format : AC-3
Format/Info : Audio Coding 3
Mode extension : CM (complete main)
Format settings, Endianness : Big
Codec ID : A_AC3
Duration : 1h 49mn
Bit rate mode : Constant
Bit rate : 640 Kbps
Channel(s) : 6 channels
Channel positions : Front: L C R, Side: L R, LFE
Sampling rate : 48.0 KHz
Bit depth : 16 bits
Compression mode : Lossy
Stream size : 501 MiB (6%)
Title : Дублированный
Language : Russian
Default : Yes
Forced : No

Audio #2
ID : 3
Format : AC-3
Format/Info : Audio Coding 3
Mode extension : CM (complete main)
Format settings, Endianness : Big
Codec ID : A_AC3
Duration : 1h 49mn
Bit rate mode : Constant
Bit rate : 640 Kbps
Channel(s) : 6 channels
Channel positions : Front: L C R, Side: L R, LFE
Sampling rate : 48.0 KHz
Bit depth : 16 bits
Compression mode : Lossy
Stream size : 501 MiB (6%)
Title : English
Language : English
Default : No
Forced : No

Text
ID : 4
Format : UTF-8
Codec ID : S_TEXT/UTF8
Codec ID/Info : UTF-8 Plain Text
Title : Russian
Language : Russian
Default : No
Forced : No

Menu
00:00:00.000 : en:Chapter 01
00:06:32.726 : en:Chapter 02
00:17:14.325 : en:Chapter 03
00:26:27.920 : en:Chapter 04
00:34:46.084 : en:Chapter 05
00:40:31.095 : en:Chapter 06
00:49:25.546 : en:Chapter 07
00:55:34.206 : en:Chapter 08
01:00:05.185 : en:Chapter 09
01:06:29.068 : en:Chapter 10
01:12:35.601 : en:Chapter 11
01:20:51.263 : en:Chapter 12
01:27:50.348 : en:Chapter 13
01:38:49.215 : en:Chapter 14
01:44:31.640 : en:Chapter 15

Как скачать!

  • Похожие темы
    Ответы
    Просмотры
    Последнее сообщение

Вернуться в «Фильмы HD»

Кто сейчас на конференции

Сейчас этот форум просматривают: Yandex [Bot] и 2 гостя