В страхе / In Fear (2013) BDRip 720p | L1 скачать бесплатно торрент

Фильмы высокого разрешения в формате HD
Торрент [ Статус: Проверен ] Скачать Сидеров Личеров Размер
In.Fear.2013.Blu.Ray.720p.mkv.torrent
417 226 3.39 ГБ
Аватара пользователя
admin
Администратор
Администратор
Сообщения: 11037
Зарегистрирован: 13 дек 2013, 01:15
Благодарил (а): 7 раз
Контактная информация:

В страхе / In Fear (2013) BDRip 720p | L1

Сообщение admin » 23 мар 2014, 22:08

Информация о фильме
Название: В страхе
Оригинальное название: In Fear
Год выхода: 2013
Жанр: триллер
Режиссер: Джереми Лавринг
В ролях: Йен де Кестекер, Элис Энглерт, Аллен Лич

О фильме:
Застигнутый ночью в пути, замученный и потерянный, ты невольно даешь волю своим вечным страхам. Ведь в темноте таятся неведомые опасности. Но главный вызов — не дать соблазну и злу проникнуть в душу. Или, возможно, оно уже там. Том и Люси, недавно познакомились, и решили поехать загород на музыкальный фестиваль. Но не найдя отель, в котором забронировали номер, они заблудились в чаще леса, батарейки в навигаторе и телефоне сели и вот уже глубокой холодной ночью они слишком поздно поняли — из леса за ними кто-то наблюдает и хочет убить.



Выпущено: Великобритания
Продолжительность: 01:24:53
Озвучивание: Любительское (одноголосое) [ХиХиДок]

Файл
Формат: MKV
Качество: BDRip 720p
Видео: 4756 kb/s, 1280x544

Аудио:
Russian: AC3, 192 kb/s (2 ch)
English: DTS, 768 kb/s (6 ch)

Дополнительно: Сохранены оригинальные чаптеры как на Blu-ray
Субтитры: English

Сэмпл - http://yadi.sk/d/YDDrdMT0L4uWm
Общее
In.Fear.2013.Blu.Ray.720p.mkv
Формат : Matroska
Версия формата : Version 4 / Version 2
Размер файла : 3,39 Гбайт
Продолжительность : 1 ч. 24 м.
Общий поток : 5716 Кбит/сек
Название фильма : In.Fear
Дата кодирования : UTC 2014-03-23 17:21:47
Программа кодирования : mkvmerge v6.8.0 ('Theme for Great Cities') 64bit built on Mar 2 2014 21:34:26
Библиотека кодирования : libebml v1.3.0 + libmatroska v1.4.1

Видео
Идентификатор : 1
Формат : AVC
Формат/Информация : Advanced Video Codec
Профиль формата : High@L4.1
Параметр CABAC формата : Да
Параметр ReFrames формата : 5 кадров
Идентификатор кодека : V_MPEG4/ISO/AVC
Продолжительность : 1 ч. 24 м.
Битрейт : 4756 Кбит/сек
Ширина : 1280 пикселей
Высота : 544 пикселя
Соотношение сторон : 2,35:1
Режим частоты кадров : Постоянный
Частота кадров : 23,976 кадра/сек
Цветовое пространство : YUV
Субдискретизация насыщенности : 4:2:0
Битовая глубина : 8 бит
Тип развёртки : Прогрессивная
Бит/(Пиксели*Кадры) : 0.285
Размер потока : 2,75 Гбайт (81%)

Библиотека кодирования : x264 core 140 r2377 1ca7bb9
Настройки программы : cabac=1 / ref=5 / deblock=1:0:0 / analyse=0x3:0x133 / me=umh / subme=8 / psy=1 / psy_rd=1.00:0.00 / mixed_ref=1 / me_range=16 / chroma_me=1 / trellis=1 / 8x8dct=1 / cqm=0 / deadzone=21,11 / fast_pskip=0 / chroma_qp_offset=-2 / threads=12 / lookahead_threads=2 / sliced_threads=0 / nr=0 / decimate=1 / interlaced=0 / bluray_compat=0 / constrained_intra=0 / bframes=3 / b_pyramid=2 / b_adapt=2 / b_bias=0 / direct=3 / weightb=1 / open_gop=0 / weightp=2 / keyint=250 / keyint_min=23 / scenecut=40 / intra_refresh=0 / rc_lookahead=50 / rc=2pass / mbtree=1 / bitrate=4756 / ratetol=1.0 / qcomp=0.60 / qpmin=0 / qpmax=69 / qpstep=4 / cplxblur=20.0 / qblur=0.5 / ip_ratio=1.40 / aq=1:1.00
Язык : English
Default : Да
Forced : Нет

Аудио #1
Идентификатор : 2
Формат : AC-3
Формат/Информация : Audio Coding 3
Расширение режима : CM (complete main)
Параметр Endianness формата : Big
Идентификатор кодека : A_AC3
Продолжительность : 1 ч. 24 м.
Вид битрейта : Постоянный
Битрейт : 192 Кбит/сек
Каналы : 2 канала
Расположение каналов : Front: L R
Частота : 44,1 КГц
Битовая глубина : 16 бит
Метод сжатия : С потерями
Размер потока : 117 Мбайт (3%)
Заголовок : Хихидок
Язык : Russian
Default : Да
Forced : Да

Аудио #2
Идентификатор : 3
Формат : DTS
Формат/Информация : Digital Theater Systems
Режим : 16
Параметр Endianness формата : Big
Идентификатор кодека : A_DTS
Продолжительность : 1 ч. 24 м.
Вид битрейта : Постоянный
Битрейт : 768 Кбит/сек
Каналы : 6 каналов
Расположение каналов : Front: L C R, Side: L R, LFE
Частота : 48,0 КГц
Битовая глубина : 24 бит
Метод сжатия : С потерями
Размер потока : 466 Мбайт (13%)
Язык : English
Default : Нет
Forced : Нет

Текст
Идентификатор : 4
Формат : UTF-8
Идентификатор кодека : S_TEXT/UTF8
Идентификатор кодека/Информация : UTF-8 Plain Text
Язык : English
Default : Нет
Forced : Нет

Меню
00:00:00.000 : en:00:00:00.000
00:07:41.336 : en:00:07:41.336
00:13:51.873 : en:00:13:51.873
00:22:08.285 : en:00:22:08.285
00:27:04.414 : en:00:27:04.414
00:33:15.452 : en:00:33:15.452
00:41:13.513 : en:00:41:13.513
00:47:55.289 : en:00:47:55.289
00:54:40.402 : en:00:54:40.402
01:00:37.884 : en:01:00:37.884
01:08:35.153 : en:01:08:35.153
01:14:29.507 : en:01:14:29.507

Как скачать!

  • Похожие темы
    Ответы
    Просмотры
    Последнее сообщение

Вернуться в «Фильмы HD»

Кто сейчас на конференции

Сейчас этот форум просматривают: нет зарегистрированных пользователей и 2 гостя