Пресная вода / Sweetwater (2013) BDRip 720p | 2xL1 скачать бесплатно торрент

Фильмы высокого разрешения в формате HD
Торрент [ Статус: Проверен ] Скачать Сидеров Личеров Размер
Sweetwater.2013.Blu.Ray.720p.mkv.torrent
3 0 5.06 ГБ
Аватара пользователя
admin
Администратор
Администратор
Сообщения: 11117
Зарегистрирован: 13 дек 2013, 01:15
Благодарил (а): 7 раз
Контактная информация:

Пресная вода / Sweetwater (2013) BDRip 720p | 2xL1

Сообщение admin » 24 мар 2014, 18:49

Информация о фильме
Название: Пресная вода
Оригинальное название: Sweetwater
Год выхода: 2013
Жанр: триллер, вестерн
Режиссер: Логан Миллер
В ролях: Дженьюэри Джонс, Эд Харрис, Джейсон Айзекс, Эдуардо Норьега, Стивен Рут, Джейсон Алдин, Вик Браудер, Люче Рэйнс, Дилан Кенин, Кит Мэривезер

О фильме:
На диком-диком западе в конце 19-го века живет девушка, которая очень любит своего мужа. Но однажды владелец овцеводческой фермы, который отличается особой жестокостью, убивает ее мужа. Девушка становится вдовой. Она готова пойти на любые жертвы лишь бы душегуб ее мужа заплатил по счетам.



Выпущено: США
Продолжительность: 01:35:02

Озвучивание:
Любительское (одноголосое) [Pashaup]
Любительское (одноголосое) [Смерт]

Файл
Формат: MKV
Качество: BDRip 720p [CRiSC]
Видео: 6194 kb/s, 1280x532

Аудио:
Russian [Pashaup]: AC3, 448 kb/s (6 ch)
Russian [Смерт]: AC3, 192 kb/s (2 ch)
English: AC3, 640 kb/s (6 ch)
Субтитры: Russian [mig_88], English
Дополнительно: Сохранены оригинальные чаптеры как на Blu-Ray

Сэмпл - http://yadi.sk/d/UMLbdHySL8EKh
Общее
Sweetwater.2013.Blu.Ray.720p.mkv
Формат : Matroska
Версия формата : Version 4 / Version 2
Размер файла : 5,06 Гбайт
Продолжительность : 1 ч. 35 м.
Общий поток : 7626 Кбит/сек
Название фильма : Sweetwater
Дата кодирования : UTC 2014-03-24 14:32:01
Программа кодирования : mkvmerge v6.8.0 ('Theme for Great Cities') 64bit built on Mar 2 2014 21:34:26
Библиотека кодирования : libebml v1.3.0 + libmatroska v1.4.1

Видео
Идентификатор : 1
Формат : AVC
Формат/Информация : Advanced Video Codec
Профиль формата : High@L4.1
Параметр CABAC формата : Да
Параметр ReFrames формата : 12 кадров
Идентификатор кодека : V_MPEG4/ISO/AVC
Продолжительность : 1 ч. 35 м.
Битрейт : 6194 Кбит/сек
Ширина : 1280 пикселей
Высота : 532 пикселя
Соотношение сторон : 2,40:1
Режим частоты кадров : Постоянный
Частота кадров : 23,976 кадра/сек
Цветовое пространство : YUV
Субдискретизация насыщенности : 4:2:0
Битовая глубина : 8 бит
Тип развёртки : Прогрессивная
Бит/(Пиксели*Кадры) : 0.379
Размер потока : 4,11 Гбайт (81%)

Библиотека кодирования : x264 core 140 r2377kMod 1ca7bb9
Настройки программы : cabac=1 / ref=12 / deblock=1:-3:-3 / analyse=0x3:0x133 / me=umh / subme=11 / psy=1 / fade_compensate=0.00 / psy_rd=1.10:0.00 / mixed_ref=1 / me_range=64 / chroma_me=1 / trellis=2 / 8x8dct=1 / cqm=0 / deadzone=21,11 / fast_pskip=0 / chroma_qp_offset=-2 / threads=12 / lookahead_threads=2 / sliced_threads=0 / nr=0 / decimate=0 / interlaced=0 / bluray_compat=0 / constrained_intra=0 / fgo=0 / bframes=8 / b_pyramid=2 / b_adapt=2 / b_bias=0 / direct=3 / weightb=1 / open_gop=0 / weightp=2 / keyint=250 / keyint_min=23 / scenecut=40 / intra_refresh=0 / rc_lookahead=40 / rc=crf / mbtree=0 / crf=17.0000 / qcomp=0.75 / qpmin=0 / qpmax=69 / qpstep=4 / vbv_maxrate=50000 / vbv_bufsize=62500 / crf_max=0.0 / nal_hrd=none / filler=0 / ip_ratio=1.40 / pb_ratio=1.30 / aq=3:0.80
Язык : English
Default : Да
Forced : Нет
Основные цвета : BT.709
Характеристики трансфера : BT.709
Коэффициенты матрицы : BT.709

Аудио #1
Идентификатор : 2
Формат : AC-3
Формат/Информация : Audio Coding 3
Расширение режима : CM (complete main)
Параметр Endianness формата : Big
Идентификатор кодека : A_AC3
Продолжительность : 1 ч. 35 м.
Вид битрейта : Постоянный
Битрейт : 448 Кбит/сек
Каналы : 6 каналов
Расположение каналов : Front: L C R, Side: L R, LFE
Частота : 48,0 КГц
Битовая глубина : 16 бит
Метод сжатия : С потерями
Размер потока : 305 Мбайт (6%)
Заголовок : Pashaup
Язык : Russian
Default : Да
Forced : Да

Аудио #2
Идентификатор : 3
Формат : AC-3
Формат/Информация : Audio Coding 3
Расширение режима : CM (complete main)
Параметр Endianness формата : Big
Идентификатор кодека : A_AC3
Продолжительность : 1 ч. 35 м.
Вид битрейта : Постоянный
Битрейт : 192 Кбит/сек
Каналы : 2 канала
Расположение каналов : Front: L R
Частота : 48,0 КГц
Битовая глубина : 16 бит
Метод сжатия : С потерями
Размер потока : 131 Мбайт (3%)
Заголовок : Смерт
Язык : Russian
Default : Нет
Forced : Нет

Аудио #3
Идентификатор : 4
Формат : AC-3
Формат/Информация : Audio Coding 3
Расширение режима : CM (complete main)
Параметр Endianness формата : Big
Идентификатор кодека : A_AC3
Продолжительность : 1 ч. 35 м.
Вид битрейта : Постоянный
Битрейт : 640 Кбит/сек
Каналы : 6 каналов
Расположение каналов : Front: L C R, Side: L R, LFE
Частота : 48,0 КГц
Битовая глубина : 16 бит
Метод сжатия : С потерями
Размер потока : 435 Мбайт (8%)
Язык : English
Default : Нет
Forced : Нет

Текст #1
Идентификатор : 5
Формат : UTF-8
Идентификатор кодека : S_TEXT/UTF8
Идентификатор кодека/Информация : UTF-8 Plain Text
Заголовок : mig_88
Язык : Russian
Default : Нет
Forced : Нет

Текст #2
Идентификатор : 6
Формат : UTF-8
Идентификатор кодека : S_TEXT/UTF8
Идентификатор кодека/Информация : UTF-8 Plain Text
Язык : English
Default : Нет
Forced : Нет

Меню
00:00:00.000 : en:00:00:00.000
00:08:14.494 : en:00:08:14.494
00:15:16.916 : en:00:15:16.916
00:23:17.396 : en:00:23:17.396
00:32:52.971 : en:00:32:52.971
00:37:10.228 : en:00:37:10.228
00:47:17.835 : en:00:47:17.835
00:55:39.336 : en:00:55:39.336
01:01:37.694 : en:01:01:37.694
01:10:13.209 : en:01:10:13.209
01:19:06.742 : en:01:19:06.742
01:28:34.309 : en:01:28:34.309

Как скачать!

  • Похожие темы
    Ответы
    Просмотры
    Последнее сообщение

Вернуться в «Фильмы HD»

Кто сейчас на конференции

Сейчас этот форум просматривают: нет зарегистрированных пользователей и 2 гостя