Хоббит: Пустошь Смауга / The Hobbit: The Desolation of Smaug (2013) BDRip 1080p | D | iTunes Russia скачать бесплатно торрент

Фильмы высокого разрешения в формате HD
Торрент [ Статус: Проверен ] Скачать Сидеров Личеров Размер
The.Hobbit.The.Desolation.Of.Smaug.2013.x264.BD.torrent
132 66 11.03 ГБ
Аватара пользователя
admin
Администратор
Администратор
Сообщения: 11117
Зарегистрирован: 13 дек 2013, 01:15
Благодарил (а): 7 раз
Контактная информация:

Хоббит: Пустошь Смауга / The Hobbit: The Desolation of Smaug (2013) BDRip 1080p | D | iTunes Russia

Сообщение admin » 24 мар 2014, 20:58

Информация о фильме
Название: Хоббит: Пустошь Смауга
Оригинальное название: The Hobbit: The Desolation of Smaug
Год выпуска: 2013
Жанр: Фэнтези, приключения, экранизация
Выпущено: США, Новая Зеландия, Metro-Goldwyn-Mayer (MGM), New Line Cinema, WingNut Films
Режиссер: Питер Джексон
В ролях: Мартин Фриман, Иэн МакКеллен, Орландо Блум, Эванджелин Лилли, Бенедикт Камбербэтч, Люк Эванс, Элайджа Вуд, Иэн Холм, Кейт Бланшетт, Энди Серкис, Кристофер Ли, Ричард Армитедж, Ли Пейс, Стивен Фрай

О фильме: После успешного перехода через Туманные горы, Торин и компания вынуждены обратиться за помощью к могучему незнакомцу, прежде чем отправиться в опасное Лихолесье без волшебника. Их компания обязана завершить свое путешествие к Одинокой горе, где Бэггинсу нужно будет найти потайную дверь, чтобы добраться до клада Смауга…




Файл
Качество: BDRip (1080p)
Видео: MPEG-4 AVC, 7900 Кбит/с, 1920x800, 23.976 кадр/с
Аудио: Русский (AC3, 6 ch, 384 Кбит/с), английский (DTS, 6 ch, 1509 Кбит/с)

Продолжительность: 02:41:17
Перевод: Дублированный
Субтитры: Русские(форсированные и полные), английские(полные)

Сохранены оригинальные чаптеры как на Blu-Ray.
---------------------------------------------------------------------------
x264 [info]: frame I:1908 Avg QP:14.47 size:226098
x264 [info]: frame P:60498 Avg QP:18.05 size: 76550
x264 [info]: frame B:169609 Avg QP:20.40 size: 26473

Общее
Уникальный идентификатор : 203734853721375690019063636438560071806 (0x9945E7D21B81087F8344452BE9D0E07E)
Полное имя : D:ЗагрузкиThe.Hobbit.The.Desolation.Of.Smaug.2013.x264.BDRip.(1080p).mkv
Формат : Matroska
Версия формата : Version 2
Размер файла : 11,0 Гбайт
Продолжительность : 2 ч. 41 м.
Общий поток : 9792 Кбит/сек
Название фильма : Хоббит: Пустошь Смауга.2013.Rip by: ollan
Дата кодирования : UTC 2014-03-24 07:02:28
Программа кодирования : mkvmerge v5.6.0 ('Kenya Kane') built on May 27 2012 16:44:04
Библиотека кодирования : libebml v1.2.3 + libmatroska v1.3.0

Видео
Идентификатор : 1
Формат : AVC
Формат/Информация : Advanced Video Codec
Профиль формата : High@L4.1
Параметр CABAC формата : Да
Параметр ReFrames формата : 5 кадров
Идентификатор кодека : V_MPEG4/ISO/AVC
Продолжительность : 2 ч. 41 м.
Битрейт : 7900 Кбит/сек
Ширина : 1920 пикселей
Высота : 800 пикселей
Соотношение сторон : 2,40:1
Режим частоты кадров : Постоянный
Частота кадров : 23,976 кадра/сек
Цветовое пространство : YUV
Субдискретизация насыщенности : 4:2:0
Битовая глубина : 8 бит
Тип развёртки : Прогрессивная
Бит/(Пиксели*Кадры) : 0.215
Размер потока : 8,68 Гбайт (79%)
Библиотека кодирования : x264 core 125 r2200 999b753
Настройки программы : cabac=1 / ref=5 / deblock=1:-3:-3 / analyse=0x3:0x133 / me=umh / subme=11 / psy=1 / psy_rd=1.00:0.10 / mixed_ref=1 / me_range=32 / chroma_me=1 / trellis=2 / 8x8dct=1 / cqm=0 / deadzone=21,11 / fast_pskip=0 / chroma_qp_offset=-3 / threads=12 / lookahead_threads=2 / sliced_threads=0 / nr=0 / decimate=0 / interlaced=0 / bluray_compat=0 / constrained_intra=0 / bframes=9 / b_pyramid=2 / b_adapt=2 / b_bias=0 / direct=3 / weightb=1 / open_gop=0 / weightp=2 / keyint=240 / keyint_min=23 / scenecut=40 / intra_refresh=0 / rc_lookahead=40 / rc=2pass / mbtree=1 / bitrate=7900 / ratetol=1.0 / qcomp=0.60 / qpmin=0 / qpmax=69 / qpstep=4 / cplxblur=20.0 / qblur=0.5 / ip_ratio=1.40 / aq=1:1.00
Default : Да
Forced : Нет

Аудио #1
Идентификатор : 2
Формат : AC-3
Формат/Информация : Audio Coding 3
Расширение режима : CM (complete main)
Параметр Endianness формата : Big
Идентификатор кодека : A_AC3
Продолжительность : 2 ч. 41 м.
Вид битрейта : Постоянный
Битрейт : 384 Кбит/сек
Каналы : 6 каналов
Расположение каналов : Front: L C R, Side: L R, LFE
Частота : 48,0 КГц
Битовая глубина : 16 бит
Метод сжатия : С потерями
Размер потока : 443 Мбайт (4%)
Заголовок : Дублированный (iTunes Russia)
Язык : Russian
Default : Да
Forced : Да

Аудио #2
Идентификатор : 3
Формат : DTS
Формат/Информация : Digital Theater Systems
Режим : 16
Параметр Endianness формата : Big
Идентификатор кодека : A_DTS
Продолжительность : 2 ч. 41 м.
Вид битрейта : Постоянный
Битрейт : 1509 Кбит/сек
Каналы : 6 каналов
Расположение каналов : Front: L C R, Side: L R, LFE
Частота : 48,0 КГц
Битовая глубина : 24 бит
Метод сжатия : С потерями
Размер потока : 1,70 Гбайт (15%)
Язык : English
Default : Нет
Forced : Нет

Текст #1
Идентификатор : 4
Формат : UTF-8
Идентификатор кодека : S_TEXT/UTF8
Идентификатор кодека/Информация : UTF-8 Plain Text
Заголовок : Forced
Язык : Russian
Default : Да
Forced : Да

Текст #2
Идентификатор : 5
Формат : UTF-8
Идентификатор кодека : S_TEXT/UTF8
Идентификатор кодека/Информация : UTF-8 Plain Text
Язык : Russian
Default : Нет
Forced : Нет

Текст #3
Идентификатор : 6
Формат : UTF-8
Идентификатор кодека : S_TEXT/UTF8
Идентификатор кодека/Информация : UTF-8 Plain Text
Язык : English
Default : Нет
Forced : Нет

Меню
00:00:00.000 : en:The Quest For Erebor
00:05:44.094 : en:Wilderland
00:10:10.985 : en:The Master Summons
00:11:10.128 : en:A Commander Of Legions
00:13:50.204 : en:Queer Lodgings
00:17:12.657 : en:The Elven-Gate
00:21:25.326 : en:Mirkwood
00:24:33.472 : en:Flies And Spiders
00:33:03.273 : en:The Woodland Realm
00:36:05.747 : en:THe Elvenking
00:39:38.960 : en:King And Captain
00:41:29.654 : en:Feast Of Starlight
00:44:27.290 : en:Barrels Out Of Bound
00:55:01.757 : en:The High Fells
00:58:41.768 : en:Bard The Bowman
01:02:05.138 : en:The Nature Of Evil
01:05:29.592 : en:Smuggled Cargo
01:09:06.267 : en:Lake-Town
01:11:29.118 : en:The Master Of Lake-Town
01:13:11.762 : en:The Home Of Bard
01:19:14.959 : en:"It is our fight"
01:20:48.469 : en:The Prophecy
01:23:12.529 : en:A Warm Welcome
01:27:09.641 : en:The Lonely Mountain
01:30:45.482 : en:A Spell Of Concealment
01:33:29.813 : en:On The Doorstep
01:41:57.194 : en:Kingsfoil
01:42:24.472 : en:The Courage Of Hobbits
01:44:08.033 : en:The Enemy Revealed
01:47:34.114 : en:Inside Information
01:56:46.333 : en:The Black Arrow
01:57:28.917 : en:In The Dragon's Lair
01:58:03.410 : en:Under Arrest
01:59:42.300 : en:Bilbo The Burgler
02:01:30.575 : en:Smaug The Magnificent
02:04:04.312 : en:Orc Attack
02:07:58.462 : en:Confrontations
02:09:43.109 : en:Elvish Medicine
02:10:58.642 : en:Hunter And Hunted
02:12:31.443 : en:"She Walks In Starlight"
02:13:54.318 : en:A Desperate Plan
02:16:25.427 : en:Duel In Lake Town
02:18:51.490 : en:The Forges Relit
02:26:03.588 : en:Smaug The Golden
02:30:51.209 : en:Credits

Как скачать!

  • Похожие темы
    Ответы
    Просмотры
    Последнее сообщение

Вернуться в «Фильмы HD»

Кто сейчас на конференции

Сейчас этот форум просматривают: нет зарегистрированных пользователей и 7 гостей