Забойный реванш / Grudge Match (2013) BDRip 720p | iTunes скачать бесплатно торрент

Фильмы высокого разрешения в формате HD
Торрент [ Статус: Проверен ] Скачать Сидеров Личеров Размер
Zaboyniy.revansh.2013.D.BDRip.720p.torrent
0 0 5.3 ГБ
Аватара пользователя
admin
Администратор
Администратор
Сообщения: 11117
Зарегистрирован: 13 дек 2013, 01:15
Благодарил (а): 7 раз
Контактная информация:

Забойный реванш / Grudge Match (2013) BDRip 720p | iTunes

Сообщение admin » 25 мар 2014, 19:20

Информация о фильме
Название: Забойный реванш
Оригинальное название: Grudge Match
Год выхода: 2013
Жанр: комедия, спорт
Режиссер: Питер Сигал
В ролях: Роберт Де Ниро, Сильвестр Сталлоне, Кевин Харт, Алан Аркин, Джим Лэмпли, Рич Литтл, Айрленд Болдуин, Энтони Бин, Мэйсон Маки, Барри Праймус

О фильме:
Фильм расскажет о двух бывших боксерах, решающих вернуться на ринг ради финального матча, который должен будет уладить все их разногласия и расставить точки над «и».



Страна: США
Студия: Callahan Filmworks, Gerber Pictures, RatPac-Dune Entertainment
Продолжительность: 01:53:16
Перевод: Дублированное [iTunes]

Файл
Кодек: MPEG-4 AVC/H.264
Качество: BDRip 720p
Видео: ~4812 Kbps, 1280x720
Звук: Russian: AC-3, 48.0 KHz, 6 ch, 384 Kbps, CBR / English: DTS, 48.0 KHz, 6 ch, 1510 Kbps, CBR

Сэмпл - http://multi-up.com/961786
Общее
Уникальный идентификатор : 218717438127015627790490925325158297729 (0xA48B7243A7EDB78CB0C6A59148C5B081)
Полное имя : D:ФильмыZaboyniy.revansh.2013.D.BDRip.720p.mkv
Формат : Matroska
Версия формата : Version 2
Размер файла : 5,30 Гбайт
Продолжительность : 1 ч. 53 м.
Общий поток : 6694 Кбит/сек
Дата кодирования : UTC 2014-03-24 19:40:44
Программа кодирования : mkvmerge v4.5.0 ('Speed of Light') сборка от Feb 1 2011 02:10:32
Библиотека кодирования : libebml v1.2.0 + libmatroska v1.1.0

Видео
Идентификатор : 1
Формат : AVC
Формат/Информация : Advanced Video Codec
Профиль формата : High@L4.1
Параметр CABAC формата : Да
Параметр ReFrames формата : 8 кадров
Режим смешивания : Header stripping
Идентификатор кодека : V_MPEG4/ISO/AVC
Продолжительность : 1 ч. 53 м.
Битрейт : 4812 Кбит/сек
Ширина : 1280 пикселей
Высота : 720 пикселей
Соотношение сторон : 16:9
Режим частоты кадров : Постоянный
Частота кадров : 23,976 кадра/сек
Цветовое пространство : YUV
Субдискретизация насыщенности : 4:2:0
Битовая глубина : 8 бит
Тип развёртки : Прогрессивная
Бит/(Пиксели*Кадры) : 0.218
Размер потока : 3,69 Гбайт (70%)
Библиотека кодирования : x264 core 138 r2356 a1d3d17
Настройки программы : cabac=1 / ref=8 / deblock=1:-3:-3 / analyse=0x3:0x113 / me=umh / subme=10 / psy=1 / psy_rd=1.00:0.05 / mixed_ref=1 / me_range=32 / chroma_me=1 / trellis=2 / 8x8dct=1 / cqm=0 / deadzone=21,11 / fast_pskip=0 / chroma_qp_offset=-2 / threads=18 / lookahead_threads=1 / sliced_threads=0 / nr=0 / decimate=1 / interlaced=0 / bluray_compat=0 / constrained_intra=0 / bframes=5 / b_pyramid=2 / b_adapt=2 / b_bias=0 / direct=3 / weightb=1 / open_gop=0 / weightp=2 / keyint=250 / keyint_min=23 / scenecut=40 / intra_refresh=0 / rc=2pass / mbtree=0 / bitrate=4812 / ratetol=1.0 / qcomp=0.70 / qpmin=0 / qpmax=69 / qpstep=4 / cplxblur=20.0 / qblur=0.5 / ip_ratio=1.40 / pb_ratio=1.30 / aq=2:0.90
Язык : English
Default : Да
Forced : Нет

Аудио #1
Идентификатор : 2
Формат : AC-3
Формат/Информация : Audio Coding 3
Расширение режима : CM (complete main)
Параметр Endianness формата : Big
Режим смешивания : Header stripping
Идентификатор кодека : A_AC3
Продолжительность : 1 ч. 53 м.
Вид битрейта : Постоянный
Битрейт : 384 Кбит/сек
Каналы : 6 каналов
Расположение каналов : Front: L C R, Side: L R, LFE
Частота : 48,0 КГц
Битовая глубина : 16 бит
Метод сжатия : С потерями
Размер потока : 311 Мбайт (6%)
Заголовок : AC3, 384 kb/s (6 ch)
Язык : Russian
Default : Да
Forced : Нет

Аудио #2
Идентификатор : 3
Формат : DTS
Формат/Информация : Digital Theater Systems
Режим : 16
Параметр Endianness формата : Big
Режим смешивания : Header stripping
Идентификатор кодека : A_DTS
Продолжительность : 1 ч. 53 м.
Вид битрейта : Постоянный
Битрейт : 1509 Кбит/сек
Каналы : 6 каналов
Расположение каналов : Front: L C R, Side: L R, LFE
Частота : 48,0 КГц
Битовая глубина : 24 бит
Метод сжатия : С потерями
Задержка видео : 11 мс.
Размер потока : 1,19 Гбайт (23%)
Заголовок : DTS, 1509 kb/s (6 ch)
Язык : English
Default : Нет
Forced : Нет

Как скачать!

  • Похожие темы
    Ответы
    Просмотры
    Последнее сообщение

Вернуться в «Фильмы HD»

Кто сейчас на конференции

Сейчас этот форум просматривают: нет зарегистрированных пользователей и 2 гостя