Хоббит: Пустошь Смауга / The Hobbit: The Desolation of Smaug (2013) BDRip-AVC | D | Лицензия скачать бесплатно торрент

Фильмы высокого разрешения в формате HD
Торрент [ Статус: Проверен ] Скачать Сидеров Личеров Размер
Hobbit.Pustosh.Smauga.2013.BDRip.AVC.torrent
186 4 3.77 ГБ
Аватара пользователя
admin
Администратор
Администратор
Сообщения: 11117
Зарегистрирован: 13 дек 2013, 01:15
Благодарил (а): 7 раз
Контактная информация:

Хоббит: Пустошь Смауга / The Hobbit: The Desolation of Smaug (2013) BDRip-AVC | D | Лицензия

Сообщение admin » 06 фев 2014, 16:25

Информация о фильме
Название: Хоббит: Пустошь Смауга
Оригинальное название: The Hobbit: The Desolation of Smaug
Год выпуска: 2013
Жанр: Фэнтези, приключения, экранизация
Режиссер: Питер Джексон
В ролях: Мартин Фриман, Иэн МакКеллен, Орландо Блум, Эванджелин Лилли, Бенедикт Камбербэтч, Люк Эванс, Элайджа Вуд, Иэн Холм, Кейт Бланшетт, Энди Серкис, Кристофер Ли, Ричард Армитедж, Ли Пейс, Стивен Фрай

Описание: После успешного перехода через Туманные горы, Торин и компания вынуждены обратиться за помощью к могучему незнакомцу, прежде чем отправиться в опасное Лихолесье без волшебника. Их компания обязана завершить свое путешествие к Одинокой горе, где Бэггинсу нужно будет найти потайную дверь, чтобы добраться до клада Смауга…




Страна: США, Новая Зеландия
Студия: Metro-Goldwyn-Mayer (MGM), New Line Cinema, WingNut Films
Продолжительность: 02:41:17
Перевод: Дублированный

Файл
Качество: BDRip (AVC)
Видео: MPEG-4 AVC, 2000 Кбит/с, 1024x426, 23.976 кадр/с
Аудио #1: Русский (AC3, 6 ch, 448 Кбит/с) / Дублированный (Лицензия)
Аудио #2: Украинский (AC3, 6 ch, 448 Кбит/с) / Дублированный
Аудио #3: Английский (AC3, 6 ch, 448 Кбит/с)
Субтитры: Русские (форсированные, полные), украинские (форсированные, полные), английские (SDH)

Сэмпл - http://multi-up.com/962127
x264 [info]: frame I:1848 Avg QP:16.17 size: 68078
x264 [info]: frame P:61793 Avg QP:20.02 size: 20100
x264 [info]: frame B:168398 Avg QP:21.73 size: 6242
x264 [info]: consecutive B-frames: 4.0% 8.1% 11.4% 31.6% 16.6% 20.4% 3.2% 2.5% 0.5% 0.3% 0.2% 0.6% 0.1% 0.2% 0.5%
x264 [info]: mb I I16..4: 9.6% 62.2% 28.2%
x264 [info]: mb P I16..4: 0.8% 11.0% 2.1% P16..4: 31.7% 34.7% 12.2% 0.0% 0.0% skip: 7.5%
x264 [info]: mb B I16..4: 0.1% 1.4% 0.2% B16..8: 34.3% 18.6% 3.1% direct: 4.4% skip:38.0% L0:38.0% L1:46.4% BI:15.6%
x264 [info]: 8x8 transform intra:76.9% inter:55.5%
x264 [info]: direct mvs spatial:95.7% temporal:4.3%
x264 [info]: coded y,uvDC,uvAC intra: 88.9% 72.3% 40.2% inter: 22.4% 11.7% 4.0%
x264 [info]: i16 v,h,dc,p: 17% 8% 10% 65%
x264 [info]: i8 v,h,dc,ddl,ddr,vr,hd,vl,hu: 8% 8% 5% 9% 14% 13% 15% 13% 16%
x264 [info]: i4 v,h,dc,ddl,ddr,vr,hd,vl,hu: 10% 7% 5% 9% 15% 14% 14% 11% 14%
x264 [info]: i8c dc,h,v,p: 35% 29% 18% 18%
x264 [info]: Weighted P-Frames: Y:13.5% UV:7.1%
x264 [info]: ref P L0: 52.4% 13.6% 15.4% 5.3% 4.0% 2.8% 2.4% 1.3% 1.2% 1.1% 0.4% 0.1%
x264 [info]: ref B L0: 82.5% 8.2% 3.6% 2.3% 1.4% 0.9% 0.7% 0.3% 0.2%
x264 [info]: ref B L1: 94.5% 5.5%
x264 [info]: kb/s:1999.60
Общее
Уникальный идентификатор : 234647970629368661494526888517655589009 (0xB0878E284DA60425A019C09F812FF091)
Полное имя : D:Hobbit.Pustosh.Smauga.2013.BDRip.AVC.mkv
Формат : Matroska
Версия формата : Version 4 / Version 2
Размер файла : 3,77 Гбайт
Продолжительность : 2 ч. 41 м.
Общий поток : 3346 Кбит/сек
Название фильма :Hobbit.Pustosh.Smauga
Дата кодирования : UTC 2014-03-26 12:00:58
Программа кодирования : mkvmerge v6.8.0 ('Theme for Great Cities') 64bit built on Mar 2 2014 21:34:26
Библиотека кодирования : libebml v1.3.0 + libmatroska v1.4.1

Видео
Идентификатор : 1
Формат : AVC
Формат/Информация : Advanced Video Codec
Профиль формата : High@L4.1
Параметр CABAC формата : Да
Параметр ReFrames формата : 10 кадров
Идентификатор кодека : V_MPEG4/ISO/AVC
Продолжительность : 2 ч. 41 м.
Битрейт : 2000 Кбит/сек
Ширина : 1024 пикселя
Высота : 426 пикселей
Соотношение сторон : 2,40:1
Режим частоты кадров : Постоянный
Частота кадров : 23,976 кадра/сек
Цветовое пространство : YUV
Субдискретизация насыщенности : 4:2:0
Битовая глубина : 8 бит
Тип развёртки : Прогрессивная
Бит/(Пиксели*Кадры) : 0.191
Размер потока : 2,18 Гбайт (58%)
Заголовок : -=piratetorrent=-
Библиотека кодирования : x264 core 142 r2409+42 04be48a tMod [8-bit@4:2:0 X86_64]
Настройки программы : cabac=1 / ref=10 / deblock=1:-3:-3 / analyse=0x3:0x113 / me=umh / subme=11 / psy=1 / fade_compensate=0.00 / psy_rd=1.00:0.20 / mixed_ref=1 / me_range=32 / chroma_me=1 / trellis=2 / 8x8dct=1 / cqm=0 / deadzone=21,11 / fast_pskip=0 / chroma_qp_offset=-3 / threads=12 / lookahead_threads=3 / sliced_threads=0 / nr=0 / decimate=0 / interlaced=0 / bluray_compat=0 / constrained_intra=0 / fgo=0 / bframes=14 / b_pyramid=2 / b_adapt=2 / b_bias=0 / direct=3 / weightb=1 / open_gop=0 / weightp=2 / keyint=240 / keyint_min=23 / scenecut=40 / intra_refresh=0 / rc=2pass / mbtree=0 / bitrate=2000 / ratetol=1.0 / qcomp=0.60 / qpmin=0:0:0 / qpmax=69:69:69 / qpstep=4 / cplxblur=20.0 / qblur=0.5 / ip_ratio=1.40 / pb_ratio=1.30 / aq=2:0.80 / aq-sensitivity=10.00 / aq-factor=1.00:1.00:1.00 / aq2=0 / aq3=0
Default : Да
Forced : Да

Аудио #1
Идентификатор : 2
Формат : AC-3
Формат/Информация : Audio Coding 3
Расширение режима : CM (complete main)
Параметр Endianness формата : Big
Идентификатор кодека : A_AC3
Продолжительность : 2 ч. 41 м.
Вид битрейта : Постоянный
Битрейт : 448 Кбит/сек
Каналы : 6 каналов
Расположение каналов : Front: L C R, Side: L R, LFE
Частота : 48,0 КГц
Битовая глубина : 16 бит
Метод сжатия : С потерями
Размер потока : 517 Мбайт (13%)
Заголовок : Dub
Язык : Russian
Default : Да
Forced : Да

Аудио #2
Идентификатор : 3
Формат : AC-3
Формат/Информация : Audio Coding 3
Расширение режима : CM (complete main)
Параметр Endianness формата : Big
Идентификатор кодека : A_AC3
Продолжительность : 2 ч. 41 м.
Вид битрейта : Постоянный
Битрейт : 448 Кбит/сек
Каналы : 6 каналов
Расположение каналов : Front: L C R, Side: L R, LFE
Частота : 48,0 КГц
Битовая глубина : 16 бит
Метод сжатия : С потерями
Размер потока : 517 Мбайт (13%)
Заголовок : Dub
Язык : Ukrainian
Default : Нет
Forced : Нет

Аудио #3
Идентификатор : 4
Формат : AC-3
Формат/Информация : Audio Coding 3
Расширение режима : CM (complete main)
Параметр Endianness формата : Big
Идентификатор кодека : A_AC3
Продолжительность : 2 ч. 41 м.
Вид битрейта : Постоянный
Битрейт : 448 Кбит/сек
Каналы : 6 каналов
Расположение каналов : Front: L C R, Side: L R, LFE
Частота : 48,0 КГц
Битовая глубина : 16 бит
Метод сжатия : С потерями
Размер потока : 517 Мбайт (13%)
Язык : English
Default : Нет
Forced : Нет

Текст #1
Идентификатор : 5
Формат : UTF-8
Идентификатор кодека : S_TEXT/UTF8
Идентификатор кодека/Информация : UTF-8 Plain Text
Заголовок : Forced
Язык : Russian
Default : Да
Forced : Да

Текст #2
Идентификатор : 6
Формат : UTF-8
Идентификатор кодека : S_TEXT/UTF8
Идентификатор кодека/Информация : UTF-8 Plain Text
Язык : Russian
Default : Нет
Forced : Нет

Текст #3
Идентификатор : 7
Формат : UTF-8
Идентификатор кодека : S_TEXT/UTF8
Идентификатор кодека/Информация : UTF-8 Plain Text
Заголовок : Forced
Язык : Ukrainian
Default : Нет
Forced : Нет

Текст #4
Идентификатор : 8
Формат : UTF-8
Идентификатор кодека : S_TEXT/UTF8
Идентификатор кодека/Информация : UTF-8 Plain Text
Заголовок : Full
Язык : Ukrainian
Default : Нет
Forced : Нет

Текст #5
Идентификатор : 9
Формат : UTF-8
Идентификатор кодека : S_TEXT/UTF8
Идентификатор кодека/Информация : UTF-8 Plain Text
Язык : English
Default : Нет
Forced : Нет

Меню
00:00:00.000 : en:Chapter 01
00:05:44.093 : en:Chapter 02
00:10:10.985 : en:Chapter 03
00:11:10.127 : en:Chapter 04
00:13:50.204 : en:Chapter 05
00:17:12.656 : en:Chapter 06
00:21:25.325 : en:Chapter 07
00:24:33.471 : en:Chapter 08
00:33:03.272 : en:Chapter 09
00:36:05.746 : en:Chapter 10
00:39:38.959 : en:Chapter 11
00:41:29.653 : en:Chapter 12
00:44:27.289 : en:Chapter 13
00:55:01.756 : en:Chapter 14
00:58:41.768 : en:Chapter 15
01:02:05.138 : en:Chapter 16
01:05:29.592 : en:Chapter 17
01:09:06.267 : en:Chapter 18
01:11:29.118 : en:Chapter 19
01:13:11.762 : en:Chapter 20
01:19:14.958 : en:Chapter 21
01:20:48.468 : en:Chapter 22
01:23:12.529 : en:Chapter 23
01:27:09.641 : en:Chapter 24
01:30:45.481 : en:Chapter 25
01:33:29.812 : en:Chapter 26
01:41:57.194 : en:Chapter 27
01:42:24.471 : en:Chapter 28
01:44:08.033 : en:Chapter 29
01:47:34.114 : en:Chapter 30
01:56:46.332 : en:Chapter 31
01:57:28.916 : en:Chapter 32
01:58:03.409 : en:Chapter 33
01:59:42.300 : en:Chapter 34
02:01:30.574 : en:Chapter 35
02:04:04.311 : en:Chapter 36
02:07:58.462 : en:Chapter 37
02:09:43.108 : en:Chapter 38
02:10:58.642 : en:Chapter 39
02:12:31.443 : en:Chapter 40
02:13:54.317 : en:Chapter 41
02:16:25.427 : en:Chapter 42
02:18:51.489 : en:Chapter 43
02:26:03.588 : en:Chapter 44
02:30:51.208 : en:Chapter 45

Как скачать!

  • Похожие темы
    Ответы
    Просмотры
    Последнее сообщение

Вернуться в «Фильмы HD»

Кто сейчас на конференции

Сейчас этот форум просматривают: нет зарегистрированных пользователей и 2 гостя