Всё ещё возможно / Da geht noch was! (2013) BDRip 1080p | L1 скачать бесплатно торрент

Фильмы высокого разрешения в формате HD
Торрент [ Статус: Проверен ] Скачать Сидеров Личеров Размер
Da.Geht.Noch.Was.2013.Blu.Ray.1080p.torrent
4 0 5.38 ГБ
Аватара пользователя
admin
Администратор
Администратор
Сообщения: 11037
Зарегистрирован: 13 дек 2013, 01:15
Благодарил (а): 7 раз
Контактная информация:

Всё ещё возможно / Da geht noch was! (2013) BDRip 1080p | L1

Сообщение admin » 26 мар 2014, 22:27

Информация о фильме
Название: Всё ещё возможно
Оригинальное название: Da geht noch was!
Год выпуска: 2013
Жанр: комедия
Режиссер: Хольгер Хаазе
В ролях: Флориан Давид Фиц, Хенри Хюбхен, Мариус В. Хаас, Лесли Молтон, Текла Рютен, Джэйми Бик, Феликс фон Мантейфель, Eva-Maria Kromer, Флориан Брюкнер

О фильме:
Из-за ворчливости своего отца Карла Конрад свёл к минимуму визиты к родителям. Тот постоянно недоволен его женой Тамарой и сыном Йонасом. На ежегодной встрече мать Конрада Хелена застаёт его врасплох неожиданными новостями. После 40 лет совместной жизни она оставила мужа и теперь просит сына навестить семейный дом. Там он застаёт заливающего горе отца за горой банок из-под пива. Когда Карл получает тяжёлую травму от падения в бассейн, Конрад вместе с сыном вынужден переехать к нему, чтобы присматривать за больным. Смогут ли ужиться вместе три поколения под одной крышей?



Выпущено: Германия
Продолжительность: 01:40:43
Озвучивание: Любительское (одноголосое) [viktor_2838]

Файл
Формат: MKV
Качество: BDRip 1080p
Видео: 8668 kb/s, 1920x816
Аудио: Russian: AC3, 320 kb/s (2 ch) / German: DTS, 1510 kb/s (6 ch)
Субтитры: Russian [mig_88]
Дополнительно: Сохранены оригинальные чаптеры как на Blu-Ray

Сэмпл - http://yadi.sk/d/siqCz4UeLGGW2
Общее
Da.Geht.Noch.Was.2013.Blu.Ray.1080p.mkv
Формат : Matroska
Версия формата : Version 4 / Version 2
Размер файла : 5,38 Гбайт
Продолжительность : 1 ч. 40 м.
Общий поток : 7650 Кбит/сек
Название фильма : Da.Geht.Noch.Was
Дата кодирования : UTC 2014-03-26 17:08:52
Программа кодирования : mkvmerge v6.8.0 ('Theme for Great Cities') 64bit built on Mar 2 2014 21:34:26
Библиотека кодирования : libebml v1.3.0 + libmatroska v1.4.1

Видео
Идентификатор : 1
Формат : AVC
Формат/Информация : Advanced Video Codec
Профиль формата : High@L4.1
Параметр CABAC формата : Да
Параметр ReFrames формата : 5 кадров
Идентификатор кодека : V_MPEG4/ISO/AVC
Продолжительность : 1 ч. 40 м.
Битрейт : 8668 Кбит/сек
Ширина : 1920 пикселей
Высота : 816 пикселей
Соотношение сторон : 2,35:1
Режим частоты кадров : Постоянный
Частота кадров : 24,000 кадра/сек
Цветовое пространство : YUV
Субдискретизация насыщенности : 4:2:0
Битовая глубина : 8 бит
Тип развёртки : Прогрессивная
Бит/(Пиксели*Кадры) : 0.151
Размер потока : 3,99 Гбайт (74%)
Заголовок : Release Group CINEMANIA
Библиотека кодирования : x264 core 142 r2389 956c8d8
Настройки программы : cabac=1 / ref=5 / deblock=1:-1:-1 / analyse=0x3:0x133 / me=umh / subme=7 / psy=1 / psy_rd=1.00:0.15 / mixed_ref=1 / me_range=16 / chroma_me=1 / trellis=1 / 8x8dct=1 / cqm=0 / deadzone=21,11 / fast_pskip=0 / chroma_qp_offset=-3 / threads=18 / lookahead_threads=3 / sliced_threads=0 / nr=0 / decimate=1 / interlaced=0 / bluray_compat=0 / constrained_intra=0 / bframes=3 / b_pyramid=2 / b_adapt=1 / b_bias=0 / direct=3 / weightb=1 / open_gop=0 / weightp=2 / keyint=240 / keyint_min=24 / scenecut=40 / intra_refresh=0 / rc_lookahead=40 / rc=crf / mbtree=1 / crf=20.0 / qcomp=0.60 / qpmin=10 / qpmax=51 / qpstep=4 / ip_ratio=1.40 / aq=1:1.00
Язык : English
Default : Да
Forced : Нет

Аудио #1
Идентификатор : 2
Формат : AC-3
Формат/Информация : Audio Coding 3
Расширение режима : CM (complete main)
Параметр Endianness формата : Big
Идентификатор кодека : A_AC3
Продолжительность : 1 ч. 40 м.
Вид битрейта : Постоянный
Битрейт : 320 Кбит/сек
Каналы : 2 канала
Расположение каналов : Front: L R
Частота : 48,0 КГц
Битовая глубина : 16 бит
Метод сжатия : С потерями
Размер потока : 231 Мбайт (4%)
Заголовок : viktor_2838
Язык : Russian
Default : Да
Forced : Да

Аудио #2
Идентификатор : 3
Формат : DTS
Формат/Информация : Digital Theater Systems
Режим : 16
Параметр Endianness формата : Big
Идентификатор кодека : A_DTS
Продолжительность : 1 ч. 40 м.
Вид битрейта : Постоянный
Битрейт : 1509 Кбит/сек
Каналы : 6 каналов
Расположение каналов : Front: L C R, Side: L R, LFE
Частота : 48,0 КГц
Битовая глубина : 24 бит
Метод сжатия : С потерями
Размер потока : 1,06 Гбайт (20%)
Язык : German
Default : Нет
Forced : Нет

Текст
Идентификатор : 4
Формат : UTF-8
Идентификатор кодека : S_TEXT/UTF8
Идентификатор кодека/Информация : UTF-8 Plain Text
Заголовок : mig_88
Язык : Russian
Default : Нет
Forced : Нет

Меню
00:00:00.000 : en:00:00:00.000
00:05:09.458 : en:00:05:09.458
00:10:55.583 : en:00:10:55.583
00:15:31.083 : en:00:15:31.083
00:20:54.417 : en:00:20:54.417
00:26:23.292 : en:00:26:23.292
00:30:47.417 : en:00:30:47.417
00:36:25.958 : en:00:36:25.958
00:42:58.167 : en:00:42:58.167
00:48:16.292 : en:00:48:16.292
00:53:09.417 : en:00:53:09.417
00:57:28.125 : en:00:57:28.125
01:03:08.833 : en:01:03:08.833
01:08:44.792 : en:01:08:44.792
01:12:33.542 : en:01:12:33.542
01:18:11.708 : en:01:18:11.708
01:24:41.958 : en:01:24:41.958
01:29:47.875 : en:01:29:47.875
01:34:55.500 : en:01:34:55.500
01:36:53.917 : en:01:36:53.917

Как скачать!

  • Похожие темы
    Ответы
    Просмотры
    Последнее сообщение

Вернуться в «Фильмы HD»

Кто сейчас на конференции

Сейчас этот форум просматривают: нет зарегистрированных пользователей и 2 гостя