Проклятое место / Lost Place (2013) BDRip 1080p | P скачать бесплатно торрент

Фильмы высокого разрешения в формате HD
Торрент [ Статус: Проверен ] Скачать Сидеров Личеров Размер
Lost.Place.2013.Blu.Ray.1080p.mkv.torrent
10 1 4.13 ГБ
Аватара пользователя
admin
Администратор
Администратор
Сообщения: 11117
Зарегистрирован: 13 дек 2013, 01:15
Благодарил (а): 7 раз
Контактная информация:

Проклятое место / Lost Place (2013) BDRip 1080p | P

Сообщение admin » 27 мар 2014, 19:22

Информация о фильме
Название: Проклятое место
Оригинальное название: Lost Place
Год выхода: 2013
Жанр: ужасы, триллер
Режиссер: Торстен Клайн
В ролях: Франсуа Геск, Йозефине Пройсс, Ютта-Мерле Бёрнсен, Пит Буковски, Анатоль Таубман, Бьорн Бугри, Георг Каммерер, Рике Экерман

О фильме:
Что делает компания беззаботных юношей и девушек, когда им выпадает несколько свободных дней? Конечно, отправляется на природу, чтобы поплавать в озере, посидеть у костра и просто отдохнуть вдали от шумного дома. Вот и четверо главных героев решают воспользоваться свободным временем с пользой и, захватив с собой все необходимое, с помощью навигатора прокладывают себе путь вглубь глухого леса, где никто их не побеспокоит.

Проблема в том, что разбив лагерь, подростки очень скоро сталкиваются с рядом необъяснимых событий: одна из девушек теряет сознание, электрические приборы начинают странное себя вести, и это только начало. Вскоре выясняется, что рядом с местом, которое ребята выбрали для лагеря, расположен секретный военный объект – лаборатория, где проводились опасные опыты с электромагнитным излучением. И хотя Холодная война подошла к концу, эксперименты, судя по всему, все еще продолжаются, и удастся ли подросткам вернуться домой в целости и сохранности, уже не известно.




Выпущено: Германия
Продолжительность: 01:41:09
Озвучивание: Профессиональное (многоголосное) [online movies]

Файл
Формат: MKV
Качество: BDRip 1080p [ENCOUNTER]
Видео: 8034 kb/s, 1920x808
Аудио: Russian: AC3, 192 kb/s (2 ch) / German: DTS, 1510 kb/s (6 ch)
Субтитры: English
Дополнительно: Сохранены оригинальные чаптеры как на Blu-Ray

Сэмпл - http://gfile.ru/a7dHK
Общее
Lost.Place.2013.Blu.Ray.1080p.mkv
Формат : Matroska
Версия формата : Version 4 / Version 2
Размер файла : 4,13 Гбайт
Продолжительность : 1 ч. 41 м.
Общий поток : 5852 Кбит/сек
Название фильма : Lost.Place.2013.Blu.Ray.1080p.mkv
Дата кодирования : UTC 2014-03-27 13:20:30
Программа кодирования : mkvmerge v6.8.0 ('Theme for Great Cities') 64bit built on Mar 2 2014 21:34:26
Библиотека кодирования : libebml v1.3.0 + libmatroska v1.4.1

Видео
Идентификатор : 1
Формат : AVC
Формат/Информация : Advanced Video Codec
Профиль формата : High@L4.1
Параметр CABAC формата : Да
Параметр ReFrames формата : 5 кадров
Идентификатор кодека : V_MPEG4/ISO/AVC
Продолжительность : 1 ч. 41 м.
Битрейт : 8034 Кбит/сек
Ширина : 1920 пикселей
Высота : 808 пикселей
Соотношение сторон : 2,40:1
Режим частоты кадров : Постоянный
Частота кадров : 23,976 кадра/сек
Цветовое пространство : YUV
Субдискретизация насыщенности : 4:2:0
Битовая глубина : 8 бит
Тип развёртки : Прогрессивная
Бит/(Пиксели*Кадры) : 0.108
Размер потока : 2,85 Гбайт (69%)
Заголовок : Lost.Place.2013.Blu.Ray.1080p.mkv
Библиотека кодирования : x264 core 140 r2377 1ca7bb9
Настройки программы : cabac=1 / ref=5 / deblock=1:-1:-1 / analyse=0x3:0x133 / me=umh / subme=7 / psy=1 / psy_rd=1.00:0.15 / mixed_ref=1 / me_range=16 / chroma_me=1 / trellis=1 / 8x8dct=1 / cqm=0 / deadzone=21,11 / fast_pskip=0 / chroma_qp_offset=-3 / threads=12 / lookahead_threads=2 / sliced_threads=0 / nr=0 / decimate=1 / interlaced=0 / bluray_compat=0 / constrained_intra=0 / bframes=3 / b_pyramid=2 / b_adapt=1 / b_bias=0 / direct=1 / weightb=1 / open_gop=0 / weightp=2 / keyint=250 / keyint_min=23 / scenecut=40 / intra_refresh=0 / rc_lookahead=40 / rc=crf / mbtree=1 / crf=20.0 / qcomp=0.60 / qpmin=0 / qpmax=69 / qpstep=4 / ip_ratio=1.40 / aq=1:1.00
Default : Да
Forced : Нет

Аудио #1
Идентификатор : 2
Формат : AC-3
Формат/Информация : Audio Coding 3
Расширение режима : CM (complete main)
Параметр Endianness формата : Big
Идентификатор кодека : A_AC3
Продолжительность : 1 ч. 41 м.
Вид битрейта : Постоянный
Битрейт : 192 Кбит/сек
Каналы : 2 канала
Расположение каналов : Front: L R
Частота : 48,0 КГц
Битовая глубина : 16 бит
Метод сжатия : С потерями
Размер потока : 139 Мбайт (3%)
Заголовок : online movies
Язык : Russian
Default : Да
Forced : Да

Аудио #2
Идентификатор : 3
Формат : DTS
Формат/Информация : Digital Theater Systems
Режим : 16
Параметр Endianness формата : Big
Идентификатор кодека : A_DTS
Продолжительность : 1 ч. 41 м.
Вид битрейта : Постоянный
Битрейт : 1509 Кбит/сек
Каналы : 6 каналов
Расположение каналов : Front: L C R, Side: L R, LFE
Частота : 48,0 КГц
Битовая глубина : 24 бит
Метод сжатия : С потерями
Размер потока : 1,07 Гбайт (26%)
Язык : German
Default : Нет
Forced : Нет

Текст
Идентификатор : 4
Формат : UTF-8
Идентификатор кодека : S_TEXT/UTF8
Идентификатор кодека/Информация : UTF-8 Plain Text
Язык : English
Default : Нет
Forced : Нет

Меню
00:00:00.000 : en:00:00:00.000
00:11:01.244 : en:00:11:01.244
00:19:24.705 : en:00:19:24.705
00:27:29.815 : en:00:27:29.815
00:37:29.581 : en:00:37:29.581
00:48:42.795 : en:00:48:42.795
01:00:08.188 : en:01:00:08.188
01:11:37.752 : en:01:11:37.752
01:21:22.211 : en:01:21:22.211
01:29:56.641 : en:01:29:56.641

Как скачать!

  • Похожие темы
    Ответы
    Просмотры
    Последнее сообщение

Вернуться в «Фильмы HD»

Кто сейчас на конференции

Сейчас этот форум просматривают: нет зарегистрированных пользователей и 1 гость