Смертельный уик-энд / Zellwood / Deadly Weekend (2013) WEB-DL 720p | L2 скачать бесплатно торрент

Фильмы высокого разрешения в формате HD
Торрент [ Статус: Проверен ] Скачать Сидеров Личеров Размер
Zellwood.2013.WEB.DL.720p.mkv.torrent
2 0 2.69 ГБ
Аватара пользователя
admin
Администратор
Администратор
Сообщения: 11117
Зарегистрирован: 13 дек 2013, 01:15
Благодарил (а): 7 раз
Контактная информация:

Смертельный уик-энд / Zellwood / Deadly Weekend (2013) WEB-DL 720p | L2

Сообщение admin » 11 апр 2014, 20:33

Информация о фильме
Название: Смертельный уик-энд
Оригинальное название: Zellwood / Deadly Weekend
Год выпуска: 2013
Жанр: ужасы, триллер
Режиссер: Джейсон Вентура
В ролях: Сара Джин Андервуд, Патриция Розалес, Брюстер Сэмпсон, Амани Эткинсон, Хейли Бойл, Челси Ли, Кевин Дж. О’Нилл, Саманта Убеда, Джули Энн, Энтони Стивен Джордано

О фильме:
Две молодые пары отправляются в последнее совместное путешествие, прежде чем разъехаться по разным городам. Но когда тайное становится явным, поездка принимает неожиданный оборот…



Выпущено: США
Продолжительность: 01:22:19
Озвучивание: Любительское (двухголосое) [DeadSno & den904]

Файл
Формат: MKV
Качество: WEB-DL 720p [HD4FUN]
Видео: 3818 kb/s, 1280x544
Аудио: Russian / English: AC3, 384 kb/s (6 ch)
Субтитры: English
Дополнительно: Сохранены оригинальные чаптеры как на Blu-Ray

Сэмпл - http://yadi.sk/d/uJwwNwY-MCcdL
Общее
Zellwood.2013.WEB.DL.720p.mkv
Формат : Matroska
Версия формата : Version 4 / Version 2
Размер файла : 2,69 Гбайт
Продолжительность : 1 ч. 22 м.
Общий поток : 4680 Кбит/сек
Название фильма : Zellwood
Дата кодирования : UTC 2014-04-10 17:43:54
Программа кодирования : mkvmerge v6.8.0 ('Theme for Great Cities') 64bit built on Mar 2 2014 21:34:26
Библиотека кодирования : libebml v1.3.0 + libmatroska v1.4.1

Видео
Идентификатор : 1
Формат : AVC
Формат/Информация : Advanced Video Codec
Профиль формата : Main@L3.1
Параметр CABAC формата : Нет
Параметр ReFrames формата : 2 кадра
Идентификатор кодека : V_MPEG4/ISO/AVC
Продолжительность : 1 ч. 22 м.
Битрейт : 3818 Кбит/сек
Ширина : 1280 пикселей
Высота : 544 пикселя
Соотношение сторон : 2,35:1
Режим частоты кадров : Постоянный
Частота кадров : 23,976 кадра/сек
Цветовое пространство : YUV
Субдискретизация насыщенности : 4:2:0
Битовая глубина : 8 бит
Тип развёртки : Прогрессивная
Бит/(Пиксели*Кадры) : 0.229
Размер потока : 2,20 Гбайт (82%)
Заголовок : Release Group CINEMANIA
Язык : English
Default : Да
Forced : Нет
Основные цвета : BT.709
Характеристики трансфера : BT.709
Коэффициенты матрицы : BT.709

Аудио #1
Идентификатор : 2
Формат : AC-3
Формат/Информация : Audio Coding 3
Расширение режима : CM (complete main)
Параметр Endianness формата : Big
Идентификатор кодека : A_AC3
Продолжительность : 1 ч. 22 м.
Вид битрейта : Постоянный
Битрейт : 384 Кбит/сек
Каналы : 6 каналов
Расположение каналов : Front: L C R, Side: L R, LFE
Частота : 48,0 КГц
Битовая глубина : 16 бит
Метод сжатия : С потерями
Размер потока : 226 Мбайт (8%)
Заголовок : Влад и Снежинка
Язык : Russian
Default : Да
Forced : Да

Аудио #2
Идентификатор : 3
Формат : AC-3
Формат/Информация : Audio Coding 3
Расширение режима : CM (complete main)
Параметр Endianness формата : Big
Идентификатор кодека : A_AC3
Продолжительность : 1 ч. 22 м.
Вид битрейта : Постоянный
Битрейт : 384 Кбит/сек
Каналы : 6 каналов
Расположение каналов : Front: L C R, Side: L R, LFE
Частота : 48,0 КГц
Битовая глубина : 16 бит
Метод сжатия : С потерями
Размер потока : 226 Мбайт (8%)
Язык : English
Default : Нет
Forced : Нет

Текст
Идентификатор : 4
Формат : UTF-8
Идентификатор кодека : S_TEXT/UTF8
Идентификатор кодека/Информация : UTF-8 Plain Text
Язык : English
Default : Нет
Forced : Нет

Меню
00:00:00.000 : en:Chapter 1
00:10:55.155 : en:Chapter 2
00:22:03.114 : en:Chapter 3
00:33:22.127 : en:Chapter 4
00:43:15.136 : en:Chapter 5
00:54:00.115 : en:Chapter 6
01:05:44.152 : en:Chapter 7
01:18:42.097 : en:Chapter 8

Как скачать!

  • Похожие темы
    Ответы
    Просмотры
    Последнее сообщение

Вернуться в «Фильмы HD»

Кто сейчас на конференции

Сейчас этот форум просматривают: нет зарегистрированных пользователей и 4 гостя