Из пекла / Out of the Furnace (2013) BDRip 1080p | A, L2 скачать бесплатно торрент

Фильмы высокого разрешения в формате HD
Торрент [ Статус: Проверен ] Скачать Сидеров Личеров Размер
Out.of.the.Furnace.2013.1080p.BluRay.torrent
60 0 10.74 ГБ
Аватара пользователя
admin
Администратор
Администратор
Сообщения: 11037
Зарегистрирован: 13 дек 2013, 01:15
Благодарил (а): 7 раз
Контактная информация:

Из пекла / Out of the Furnace (2013) BDRip 1080p | A, L2

Сообщение admin » 11 апр 2014, 22:31

Информация о фильме
Название: Из пекла
Оригинальное название: Out of the Furnace
Год выхода: 2013
Жанр: Триллер, драма, криминал
Режиссер: Скотт Купер / Scott Cooper
В ролях: Кристиан Бэйл, Вуди Харрельсон, Кейси Аффлек, Форест Уитакер, Уиллем Дефо, Зои Салдана, Сэм Шепард, Дендри Тейлор, Карл Киарфалио, Нэнси Моссер

О фильме:
Когда Родни Бэйз таинственно исчезает, а правоохранительные органы при этом действуют недостаточно быстро, его старший брат Рассел берет дело в свои руки, чтобы добиться справедливости.



Страна: США, Великобритания
Студия: Appian Way, Relativity Media
Продолжительность: 01:56:07
Перевод 1: Авторский одноголосый закадровый |Д.Есарев| [18+]
Перевод 2: Любительский двухголосый закадровый |Jimmy J.|
Перевод 3: Любительский двухголосый закадровый |Paradox|


Файл
Кодек: x264
Качество: BDRip 1080p
Видео: 1920x800, 2.40:1, ~10.2 Mbps, 23,976 fps, crf
Звук 1: 48 kHz, DTS, 3/2 (L,C,R,l,r) + LFE ch, ~1536.00 kbps avg | Russian - AVO
Звук 2: 48 kHz, AC3, 3/2 (L,C,R,l,r) + LFE ch, ~448.00 kbps avg | Russian - DVO
Звук 3: 48 kHz, 2 ch, ~224.00 kbps avg | Russian - DVO
Звук 4: 48 kHz, AC3, 3/2 (L,C,R,l,r) + LFE ch, ~640.00 kbps avg | English
Субтитры: Russian, English (Full)
Format : Matroska
Format version : Version 4 / Version 2
File size : 10.7 GiB
Duration : 1h 56mn
Overall bit rate : 13.2 Mbps
Movie name : Release by Outsider
Encoded date : UTC 2014-04-11 08:51:32
Writing application : mkvmerge v6.8.0 ('Theme for Great Cities') 64bit built on Mar 2 2014 21:34:26
Writing library : libebml v1.3.0 + libmatroska v1.4.1

Video
ID : 1
Format : AVC
Format/Info : Advanced Video Codec
Format profile : High@L4.1
Format settings, CABAC : Yes
Format settings, ReFrames : 5 frames
Codec ID : V_MPEG4/ISO/AVC
Duration : 1h 56mn
Bit rate : 10.2 Mbps
Width : 1 920 pixels
Height : 800 pixels
Display aspect ratio : 2.40:1
Frame rate mode : Constant
Frame rate : 23.976 fps
Color space : YUV
Chroma subsampling : 4:2:0
Bit depth : 8 bits
Scan type : Progressive
Bits/(Pixel*Frame) : 0.276
Stream size : 8.24 GiB (77%)
Writing library : x264 core 130 r2273 b3065e6
Encoding settings : cabac=1 / ref=5 / deblock=1:-3:-3 / analyse=0x3:0x113 / me=umh / subme=11 / psy=1 / psy_rd=1.00:0.00 / mixed_ref=1 / me_range=32 / chroma_me=1 / trellis=2 / 8x8dct=1 / cqm=0 / deadzone=21,11 / fast_pskip=0 / chroma_qp_offset=-2 / threads=12 / lookahead_threads=2 / sliced_threads=0 / nr=0 / decimate=1 / interlaced=0 / bluray_compat=0 / constrained_intra=0 / bframes=8 / b_pyramid=2 / b_adapt=2 / b_bias=0 / direct=1 / weightb=1 / open_gop=0 / weightp=2 / keyint=240 / keyint_min=23 / scenecut=40 / intra_refresh=0 / rc=crf / mbtree=0 / crf=18.7 / qcomp=0.60 / qpmin=0 / qpmax=69 / qpstep=5 / ip_ratio=1.40 / pb_ratio=1.30 / aq=2:0.80
Language : English
Default : Yes
Forced : No

Audio #1
ID : 2
Format : DTS
Format/Info : Digital Theater Systems
Mode : 16
Format settings, Endianness : Big
Codec ID : A_DTS
Duration : 1h 56mn
Bit rate mode : Constant
Bit rate : 1 509 Kbps
Channel(s) : 6 channels
Channel positions : Front: L C R, Side: L R, LFE
Sampling rate : 48.0 KHz
Bit depth : 24 bits
Compression mode : Lossy
Stream size : 1.22 GiB (11%)
Title : AVO - D.Esarev
Language : Russian
Default : Yes
Forced : No

Audio #2
ID : 3
Format : AC-3
Format/Info : Audio Coding 3
Mode extension : CM (complete main)
Format settings, Endianness : Big
Codec ID : A_AC3
Duration : 1h 56mn
Bit rate mode : Constant
Bit rate : 448 Kbps
Channel(s) : 6 channels
Channel positions : Front: L C R, Side: L R, LFE
Sampling rate : 48.0 KHz
Bit depth : 16 bits
Compression mode : Lossy
Stream size : 372 MiB (3%)
Title : DVO - Jimmy J.
Language : Russian
Default : No
Forced : No

Audio #3
ID : 4
Format : AC-3
Format/Info : Audio Coding 3
Mode extension : CM (complete main)
Format settings, Endianness : Big
Codec ID : A_AC3
Duration : 1h 56mn
Bit rate mode : Constant
Bit rate : 224 Kbps
Channel(s) : 2 channels
Channel positions : Front: L R
Sampling rate : 48.0 KHz
Bit depth : 16 bits
Compression mode : Lossy
Stream size : 186 MiB (2%)
Title : DVO - "Paradox"
Language : Russian
Default : No
Forced : No

Audio #4
ID : 5
Format : AC-3
Format/Info : Audio Coding 3
Mode extension : CM (complete main)
Format settings, Endianness : Big
Codec ID : A_AC3
Duration : 1h 56mn
Bit rate mode : Constant
Bit rate : 640 Kbps
Channel(s) : 6 channels
Channel positions : Front: L C R, Side: L R, LFE
Sampling rate : 48.0 KHz
Bit depth : 16 bits
Compression mode : Lossy
Stream size : 532 MiB (5%)
Title : Original
Language : English
Default : No
Forced : No

Text #1
ID : 6
Format : UTF-8
Codec ID : S_TEXT/UTF8
Codec ID/Info : UTF-8 Plain Text
Title : Full
Language : Russian
Default : No
Forced : No

Text #2
ID : 7
Format : UTF-8
Codec ID : S_TEXT/UTF8
Codec ID/Info : UTF-8 Plain Text
Title : Full
Language : English
Default : No
Forced : No

Menu
00:00:00.000 : en:00:00:00.000
00:04:54.669 : en:00:04:54.669
00:09:02.709 : en:00:09:02.709
00:12:11.105 : en:00:12:11.105
00:15:39.856 : en:00:15:39.856
00:17:55.074 : en:00:17:55.074
00:21:13.397 : en:00:21:13.397
00:23:40.961 : en:00:23:40.961
00:28:09.646 : en:00:28:09.646
00:33:17.162 : en:00:33:17.162
00:39:15.353 : en:00:39:15.353
00:45:26.223 : en:00:45:26.223
00:53:10.020 : en:00:53:10.020
01:01:09.666 : en:01:01:09.666
01:05:31.886 : en:01:05:31.886
01:10:08.579 : en:01:10:08.579
01:12:25.383 : en:01:12:25.383
01:21:45.192 : en:01:21:45.192
01:27:18.024 : en:01:27:18.024
01:30:31.593 : en:01:30:31.593
01:34:18.736 : en:01:34:18.736
01:37:58.039 : en:01:37:58.039
01:42:51.916 : en:01:42:51.916
01:47:49.296 : en:01:47:49.296

Как скачать!

  • Похожие темы
    Ответы
    Просмотры
    Последнее сообщение

Вернуться в «Фильмы HD»

Кто сейчас на конференции

Сейчас этот форум просматривают: Yandex [Bot] и 16 гостей