Машина / The Machine (2013) BDRip 720p | L1 скачать бесплатно торрент

Фильмы высокого разрешения в формате HD
Торрент [ Статус: Проверен ] Скачать Сидеров Личеров Размер
The.Machine.2013.Blu.Ray.720p.mkv.torrent
464 17 4.33 ГБ
Аватара пользователя
admin
Администратор
Администратор
Сообщения: 11117
Зарегистрирован: 13 дек 2013, 01:15
Благодарил (а): 7 раз
Контактная информация:

Машина / The Machine (2013) BDRip 720p | L1

Сообщение admin » 13 апр 2014, 13:50

Информация о фильме
Название: Машина
Оригинальное название: The Machine
Год выпуска: 2013
Жанр: фантастика, триллер
Режиссер: Карадог В. Джеймс
В ролях: Кейти Лотц, Тоби Стивенс, Сэм Хэзелдайн, Дэнис Лосон, Ли Николас Харрис, Бен МакГрегор, Хелен Гриффин, Суле Рими

О фильме:
Нестабильная ситуация на мировой арене заставляет все государства принимать на вооружение всё более и более опасные технологии. Вот и британское правительство, заинтересованное в появлении оружия нового поколения, обращается за помощью к известному ученому – Винсенту МакКарти. Вскоре тот создаёт «Машину» – уникального андроида, обладающего потрясающими способностями, однако из-за ошибки в программном обеспечении тот разрушает лабораторию своего создателя. Теперь МакКарти приходится обратиться к Аву – специалисту по искусственному интеллекту, – чтобы с его помощью создать идеальное оружие!



Выпущено: Великобритания
Продолжительность: 01:30:28
Озвучивание: Любительское (одноголосое) [datynet]

Файл
Формат: MKV
Качество: BDRip 720p [PHD]
Видео: 5497 kb/s, 1280x720
Аудио: Russian: AC3, 192 kb/s (2 ch) / English: DTS, 768 kb/s (6 ch)
Субтитры: Russian [ХиХиДок], English
Дополнительно: Сохранены оригинальные чаптеры как на Blu-Ray

Сэмпл - http://yadi.sk/d/TkDleh5hMLLnP
Общее
The.Machine.2013.Blu.Ray.720p.mkv
Формат : Matroska
Версия формата : Version 4 / Version 2
Размер файла : 4,33 Гбайт
Продолжительность : 1 ч. 30 м.
Общий поток : 6849 Кбит/сек
Название фильма : The.Machine
Дата кодирования : UTC 2014-04-12 21:07:37
Программа кодирования : mkvmerge v6.8.0 ('Theme for Great Cities') 64bit built on Mar 2 2014 21:34:26
Библиотека кодирования : libebml v1.3.0 + libmatroska v1.4.1

Видео
Идентификатор : 1
Формат : AVC
Формат/Информация : Advanced Video Codec
Профиль формата : High@L4.1
Параметр CABAC формата : Да
Параметр ReFrames формата : 5 кадров
Идентификатор кодека : V_MPEG4/ISO/AVC
Продолжительность : 1 ч. 30 м.
Битрейт : 5497 Кбит/сек
Ширина : 1280 пикселей
Высота : 720 пикселей
Соотношение сторон : 16:9
Режим частоты кадров : Постоянный
Частота кадров : 23,976 кадра/сек
Цветовое пространство : YUV
Субдискретизация насыщенности : 4:2:0
Битовая глубина : 8 бит
Тип развёртки : Прогрессивная
Бит/(Пиксели*Кадры) : 0.249
Размер потока : 3,47 Гбайт (80%)
Заголовок : Release Group CINEMANIA
Язык : English
Default : Да
Forced : Нет

Аудио #1
Идентификатор : 2
Формат : AC-3
Формат/Информация : Audio Coding 3
Расширение режима : CM (complete main)
Параметр Endianness формата : Big
Идентификатор кодека : A_AC3
Продолжительность : 1 ч. 30 м.
Вид битрейта : Постоянный
Битрейт : 192 Кбит/сек
Каналы : 2 канала
Расположение каналов : Front: L R
Частота : 48,0 КГц
Битовая глубина : 16 бит
Метод сжатия : С потерями
Размер потока : 290 Мбайт (7%)
Заголовок : datynet
Язык : Russian
Default : Да
Forced : Да

Аудио #2
Идентификатор : 3
Формат : DTS
Формат/Информация : Digital Theater Systems
Режим : 16
Параметр Endianness формата : Big
Идентификатор кодека : A_DTS
Продолжительность : 1 ч. 30 м.
Вид битрейта : Постоянный
Битрейт : 768 Кбит/сек
Каналы : 6 каналов
Расположение каналов : Front: L C R, Side: L R, LFE
Частота : 48,0 КГц
Битовая глубина : 24 бит
Метод сжатия : С потерями
Размер потока : 497 Мбайт (11%)
Язык : English
Default : Нет
Forced : Нет

Текст #1
Идентификатор : 4
Формат : UTF-8
Идентификатор кодека : S_TEXT/UTF8
Идентификатор кодека/Информация : UTF-8 Plain Text
Заголовок : ХиХиДок
Язык : Russian
Default : Нет
Forced : Нет

Текст #2
Идентификатор : 5
Формат : UTF-8
Идентификатор кодека : S_TEXT/UTF8
Идентификатор кодека/Информация : UTF-8 Plain Text
Язык : English
Default : Нет
Forced : Нет

Меню
00:00:00.000 : en:00:00:00.000
00:06:34.394 : en:00:06:34.394
00:14:32.955 : en:00:14:32.955
00:22:19.713 : en:00:22:19.713
00:29:09.665 : en:00:29:09.665
00:35:19.326 : en:00:35:19.326
00:44:41.470 : en:00:44:41.470
00:51:20.619 : en:00:51:20.619
00:59:40.452 : en:00:59:40.452
01:05:41.604 : en:01:05:41.604
01:13:27.737 : en:01:13:27.737
01:20:41.628 : en:01:20:41.628

Как скачать!

  • Похожие темы
    Ответы
    Просмотры
    Последнее сообщение

Вернуться в «Фильмы HD»

Кто сейчас на конференции

Сейчас этот форум просматривают: нет зарегистрированных пользователей и 2 гостя