Мизерере / La marque des anges - Miserere (2013) BDRip 1080p | P, L1 скачать бесплатно торрент

Фильмы высокого разрешения в формате HD
Торрент [ Статус: Проверен ] Скачать Сидеров Личеров Размер
Mizerere.2013.Blu.Ray.1080p.mkv.torrent
42 0 8.14 ГБ
Аватара пользователя
admin
Администратор
Администратор
Сообщения: 11037
Зарегистрирован: 13 дек 2013, 01:15
Благодарил (а): 7 раз
Контактная информация:

Мизерере / La marque des anges - Miserere (2013) BDRip 1080p | P, L1

Сообщение admin » 13 апр 2014, 16:26

Информация о фильме
Название: Мизерере
Оригинальное название: La marque des anges - Miserere
Год выхода: 2013
Жанр: триллер
Режиссер: Сильвен Уайт
В ролях: Жерар Депардье, Джои Старр, Рюдигер Фоглер, Элена Ногуэрра, Марта Келлер, Тьерри Лермитт, Кевин Меффр, Иван Франек, Жерар Шеллу, Джеймс Жерар

О фильме:
Лайонел Касдан, находящийся в отставке бывший комиссар полиции, узнает, что в парижском соборе, прихожанином которого он является, был убит человек, и берется за расследование этого дела. Чилийский беженец, работающий в армянской церкви хормейстером, был найден мертвым, с уничтоженными барабанными перепонками, а свидетелей этого убийства не обнаружено. Вскоре к расследованию подключается Фрэнк Салек, работающий в Интерполе и много лет преследующий тайную организацию, специализирующуюся на похищениях детей.

Внимательно изучив обстоятельства дела, Салек приходит к выводу, что это убийство связано с его расследованием, и вдвоем с Лайонелом они вступают в смертельно опасную схватку с организованной преступностью. Следы преступлений уходят в далекое прошлое – времена II мировой войны, и имеют отношение к «Мизерере» – старинному хоралу. Теперь от Салека и Лайонела, раскопавших и узнавших многое, зависят жизни детей, которых они могут спасти, если уцелеют сами.



Выпущено: Франция
Продолжительность: 01:45:50
Озвучивание:
Профессиональное (многоголосое) [Лицензия]
Любительское (одноголосое) [Andi]

Файл
Формат: MKV
Качество: BDRip 1080p [NERDHD]
Видео: 8830 kb/s, 1920x808

Аудио:
Russian [Лицензия]: AC3, 448 kb/s (6 ch)
Russian [Andi]: AC3, 224 kb/s (2 ch)
French: DTS, 1510 kb/s (6 ch)
Субтитры: Russian [kon2011], English
Дополнительно: Сохранены оригинальные чаптеры как на Blu-Ray

Сэмпл - http://yadi.sk/d/VvBgxUccLyzrd
Общее
Mizerere.2013.Blu.Ray.1080p.mkv
Формат : Matroska
Версия формата : Version 4 / Version 2
Размер файла : 8,14 Гбайт
Продолжительность : 1 ч. 45 м.
Общий поток : 11,0 Мбит/сек
Название фильма : Mizerere
Дата кодирования : UTC 2014-04-07 18:17:34
Программа кодирования : mkvmerge v6.8.0 ('Theme for Great Cities') 64bit built on Mar 2 2014 21:34:26
Библиотека кодирования : libebml v1.3.0 + libmatroska v1.4.1

Видео
Идентификатор : 1
Формат : AVC
Формат/Информация : Advanced Video Codec
Профиль формата : High@L4.1
Параметр CABAC формата : Да
Параметр ReFrames формата : 5 кадров
Идентификатор кодека : V_MPEG4/ISO/AVC
Продолжительность : 1 ч. 45 м.
Битрейт : 8830 Кбит/сек
Ширина : 1920 пикселей
Высота : 808 пикселей
Соотношение сторон : 2,40:1
Режим частоты кадров : Постоянный
Частота кадров : 23,976 кадра/сек
Цветовое пространство : YUV
Субдискретизация насыщенности : 4:2:0
Битовая глубина : 8 бит
Тип развёртки : Прогрессивная
Бит/(Пиксели*Кадры) : 0.237
Размер потока : 6,36 Гбайт (78%)
Заголовок : Release Group CINEMANIA
Библиотека кодирования : x264 core 140 r2377 1ca7bb9
Настройки программы : cabac=1 / ref=5 / deblock=1:0:0 / analyse=0x3:0x133 / me=umh / subme=8 / psy=1 / psy_rd=1.00:0.00 / mixed_ref=1 / me_range=16 / chroma_me=1 / trellis=1 / 8x8dct=1 / cqm=0 / deadzone=21,11 / fast_pskip=0 / chroma_qp_offset=-2 / threads=24 / lookahead_threads=4 / sliced_threads=0 / nr=0 / decimate=1 / interlaced=0 / bluray_compat=0 / constrained_intra=0 / bframes=3 / b_pyramid=2 / b_adapt=1 / b_bias=0 / direct=1 / weightb=1 / open_gop=0 / weightp=2 / keyint=250 / keyint_min=23 / scenecut=40 / intra_refresh=0 / rc=2pass / mbtree=0 / bitrate=8830 / ratetol=1.0 / qcomp=0.60 / qpmin=0 / qpmax=69 / qpstep=4 / cplxblur=20.0 / qblur=0.5 / ip_ratio=1.40 / pb_ratio=1.30 / aq=1:1.00
Язык : English
Default : Да
Forced : Да

Аудио #1
Идентификатор : 2
Формат : AC-3
Формат/Информация : Audio Coding 3
Расширение режима : CM (complete main)
Параметр Endianness формата : Big
Идентификатор кодека : A_AC3
Продолжительность : 1 ч. 45 м.
Вид битрейта : Постоянный
Битрейт : 448 Кбит/сек
Каналы : 6 каналов
Расположение каналов : Front: L C R, Side: L R, LFE
Частота : 48,0 КГц
Битовая глубина : 16 бит
Метод сжатия : С потерями
Размер потока : 339 Мбайт (4%)
Заголовок : Лицензия
Язык : Russian
Default : Да
Forced : Да

Аудио #2
Идентификатор : 3
Формат : AC-3
Формат/Информация : Audio Coding 3
Расширение режима : CM (complete main)
Параметр Endianness формата : Big
Идентификатор кодека : A_AC3
Продолжительность : 1 ч. 45 м.
Вид битрейта : Постоянный
Битрейт : 224 Кбит/сек
Каналы : 2 канала
Расположение каналов : Front: L R
Частота : 48,0 КГц
Битовая глубина : 16 бит
Метод сжатия : С потерями
Размер потока : 170 Мбайт (2%)
Заголовок : Andi
Язык : Russian
Default : Нет
Forced : Нет

Аудио #3
Идентификатор : 4
Формат : DTS
Формат/Информация : Digital Theater Systems
Режим : 16
Параметр Endianness формата : Big
Идентификатор кодека : A_DTS
Продолжительность : 1 ч. 45 м.
Вид битрейта : Постоянный
Битрейт : 1509 Кбит/сек
Каналы : 6 каналов
Расположение каналов : Front: L C R, Side: L R, LFE
Частота : 48,0 КГц
Битовая глубина : 24 бит
Метод сжатия : С потерями
Размер потока : 1,12 Гбайт (14%)
Язык : French
Default : Нет
Forced : Нет

Текст #1
Идентификатор : 5
Формат : UTF-8
Идентификатор кодека : S_TEXT/UTF8
Идентификатор кодека/Информация : UTF-8 Plain Text
Заголовок : kon2011
Язык : Russian
Default : Нет
Forced : Нет

Текст #2
Идентификатор : 6
Формат : UTF-8
Идентификатор кодека : S_TEXT/UTF8
Идентификатор кодека/Информация : UTF-8 Plain Text
Язык : English
Default : Нет
Forced : Нет

Меню
00:00:00.000 : en:00:00:00.000
00:10:45.937 : en:00:10:45.937
00:20:18.426 : en:00:20:18.426
00:31:43.902 : en:00:31:43.902
00:42:48.191 : en:00:42:48.191
00:54:34.313 : en:00:54:34.313
01:04:00.503 : en:01:04:00.503
01:14:02.021 : en:01:14:02.021
01:23:35.552 : en:01:23:35.552
01:31:06.628 : en:01:31:06.628
01:41:35.131 : en:01:41:35.131

Как скачать!

  • Похожие темы
    Ответы
    Просмотры
    Последнее сообщение

Вернуться в «Фильмы HD»

Кто сейчас на конференции

Сейчас этот форум просматривают: Yandex [Bot] и 4 гостя