Метрополитен Манила / Metro Manila (2013) BDRip 720p | L1 скачать бесплатно торрент

Фильмы высокого разрешения в формате HD
Торрент [ Статус: Проверен ] Скачать Сидеров Личеров Размер
Metro.Manila.2013.Blu.Ray.720p.mkv.torrent
35 111 4.72 ГБ
Аватара пользователя
admin
Администратор
Администратор
Сообщения: 11002
Зарегистрирован: 13 дек 2013, 01:15
Благодарил (а): 7 раз
Контактная информация:

Метрополитен Манила / Metro Manila (2013) BDRip 720p | L1

Сообщение admin » 13 апр 2014, 18:54

Информация о фильме
Название: Метрополитен Манила
Оригинальное название: Metro Manila
Год выпуска: 2013
Жанр: боевик, триллер, драма, криминал
Режиссер: Шон Эллис
В ролях: Джейк Макапагал, Алтея Вега, Джон Арсилья, Ана Абад-Сантос, Майлс Канапи, Мозес Магиса, Рубен Юи

О фильме:
В поисках лучшей судьбы Оскар и его семья оставляют свою спокойную, но бедную жизнь среди рисовых полей на севере Филиппин и приезжают в Манилу. Оскару везет устроиться в службу инкассации. Вместе со своим напарником – опытным офицером Онгом – парень ежедневно перевозит ценные грузы на бронированном грузовике. Однако вскоре Оскар понимает, насколько смертельно опасна его работа...



Выпущено: Великобритания, Филиппины
Продолжительность: 01:54:26
Озвучивание: Любительское (одноголосое) [Lenape]

Файл
Формат: MKV
Качество: BDRip 720p [PHD]
Видео: 5497 kb/s, 1280x720

Аудио:
Russian: AC3, 448 kb/s (6 ch)
Tagalog: DTS, 755 kb/s (6 ch)
Субтитры: English (hard sub)

Дополнительно: Сохранены оригинальные чаптеры как на Blu-Ray

Сэмпл - http://yadi.sk/d/mD9vf4LEMMnyR
Общее
Metro.Manila.2013.Blu.Ray.720p.mkv
Формат : Matroska
Версия формата : Version 4 / Version 2
Размер файла : 4,72 Гбайт
Продолжительность : 1 ч. 54 м.
Общий поток : 5906 Кбит/сек
Название фильма : Metro.Manila
Дата кодирования : UTC 2014-04-13 14:06:58
Программа кодирования : mkvmerge v6.8.0 ('Theme for Great Cities') 64bit built on Mar 2 2014 21:34:26
Библиотека кодирования : libebml v1.3.0 + libmatroska v1.4.1

Видео
Идентификатор : 1
Формат : AVC
Формат/Информация : Advanced Video Codec
Профиль формата : High@L4.1
Параметр CABAC формата : Да
Параметр ReFrames формата : 9 кадров
Идентификатор кодека : V_MPEG4/ISO/AVC
Продолжительность : 1 ч. 54 м.
Битрейт : 4572 Кбит/сек
Ширина : 1280 пикселей
Высота : 690 пикселей
Соотношение сторон : 1,85:1
Режим частоты кадров : Постоянный
Частота кадров : 24,000 кадра/сек
Цветовое пространство : YUV
Субдискретизация насыщенности : 4:2:0
Битовая глубина : 8 бит
Тип развёртки : Прогрессивная
Бит/(Пиксели*Кадры) : 0.216
Размер потока : 3,65 Гбайт (77%)
Заголовок : Release Group CINEMANIA
Язык : English
Default : Да
Forced : Нет

Аудио #1
Идентификатор : 2
Формат : AC-3
Формат/Информация : Audio Coding 3
Расширение режима : CM (complete main)
Параметр Endianness формата : Big
Идентификатор кодека : A_AC3
Продолжительность : 1 ч. 54 м.
Вид битрейта : Постоянный
Битрейт : 448 Кбит/сек
Каналы : 6 каналов
Расположение каналов : Front: L C R, Side: L R, LFE
Частота : 48,0 КГц
Битовая глубина : 16 бит
Метод сжатия : С потерями
Размер потока : 367 Мбайт (8%)
Заголовок : Lenape
Язык : Russian
Default : Да
Forced : Да

Аудио #2
Идентификатор : 3
Формат : DTS
Формат/Информация : Digital Theater Systems
Режим : 16
Параметр Endianness формата : Big
Идентификатор кодека : A_DTS
Продолжительность : 1 ч. 54 м.
Вид битрейта : Постоянный
Битрейт : 768 Кбит/сек
Каналы : 6 каналов
Расположение каналов : Front: L C R, Side: L R, LFE
Частота : 48,0 КГц
Битовая глубина : 24 бит
Метод сжатия : С потерями
Размер потока : 629 Мбайт (13%)
Язык : Tagalog
Default : Нет
Forced : Нет

Меню
00:00:00.000 : en:00:00:00.000
00:09:35.958 : en:00:09:35.958
00:19:29.708 : en:00:19:29.708
00:27:28.583 : en:00:27:28.583
00:38:45.583 : en:00:38:45.583
00:47:44.208 : en:00:47:44.208
00:57:04.917 : en:00:57:04.917
01:05:34.000 : en:01:05:34.000
01:14:19.833 : en:01:14:19.833
01:24:16.125 : en:01:24:16.125
01:34:21.167 : en:01:34:21.167
01:43:53.958 : en:01:43:53.958

Как скачать!

  • Похожие темы
    Ответы
    Просмотры
    Последнее сообщение

Вернуться в «Фильмы HD»

Кто сейчас на конференции

Сейчас этот форум просматривают: нет зарегистрированных пользователей и 5 гостей