Я, Франкенштейн / I, Frankenstein (2014) CamRip скачать бесплатно торрент

Фильмы качества - CAMRip, TS, DVDScreener
Правила форума
В этом разделе новое кино только - только появившиеся на экранах.
Новые фильмы можно скачать торрент файлом. Здесь Вы всегда можете смотреть онлайн бесплатно и скачивать быстрее всех новые фильмы и кино.
Торрент [ Статус: Проверен ] Скачать Сидеров Личеров Размер
Ya.Frankenshtejn.2014.D.CAMRip.avi.torrent
0 0 1.36 ГБ
Аватара пользователя
admin
Администратор
Администратор
Сообщения: 11032
Зарегистрирован: 13 дек 2013, 01:15
Благодарил (а): 7 раз
Контактная информация:

Я, Франкенштейн / I, Frankenstein (2014) CamRip

Сообщение admin » 31 янв 2014, 18:14

Год выпуска: 2014
Производство: США, Австралия / Hopscotch Features, Lakeshore Entertainment
Жанр: Фэнтези, Боевик, Приключения
Перевод: Дублированный
Субтитры: Вшитые неотключаемые
Язык субтитров: Испанский

Дата мировой премьеры: 22 января 2014
Дата российской премьеры: 23 января 2014, «Двадцатый Век Фокс СНГ», «A Company» 3D

Режиссер: Стюарт Битти
Продюсер: Кевин Гревье, Дэвид Керн, Гари Лучези
Актеры: Аарон Экхарт, Ивонн Страховски, Билл Найи, Джай Кортни, Миранда Отто, Кэйтлин Стэйси, Кевин Гревье, Аден Янг, Дениз Акдениз, Крис Пэнг

Описание фильма:
Он — монстр. Он — двухсотлетний плод безумной фантазии своего создателя. Он — . , в котором он живет, населен древними горгульями и бессмертными демонами, которые сражаются за обладание человечеством. Величественные соборы скрывают огромные арсеналы, за дверьми научных лабораторий проводятся эксперименты по воскрешению мертвых. Война двух кланов могущественных существ достигает своего пика. И только он, Адам, монстр Франкенштейна, в силах ее остановить.

Изображение

Продолжительность: 01:18:08
Качество видео: CamRip

Видеокодек: Xvid
Битрейт видео: ~1960 Kbps 23.98 fps
Размер кадра: 720x288
Аудиокодек: MP3 2.0
Битрейт аудио#1: 256 Kbps 44100 Hz (Русский)
Битрейт аудио#2: 256 Kbps 44100 Hz (Английский)
Сэмпл: http://sendfile.su/930455
Общее
Полное имя :Ya.Frankenshtejn.2014.D.CAMRip.1400MB.avi
Формат : AVI
Формат/Информация : Audio Video Interleave
Размер файла : 1,36 Гбайт
Продолжительность : 1 ч. 18 м.
Общий поток : 2487 Кбит/сек
Программа кодирования : VirtualDubMod 1.5.10.2 (build 2540/release)
Библиотека кодирования : VirtualDubMod build 2540/release

Видео
Идентификатор : 0
Формат : MPEG-4 Visual
Профиль формата : Advanced Simple@L5
Параметр BVOP формата : 2
Параметр QPel формата : Нет
Параметр GMC формата : Без точки перехода
Параметр матрицы формата : Default (MPEG)
Идентификатор кодека : XVID
Идентификатор кодека/Подсказка : XviD
Продолжительность : 1 ч. 18 м.
Битрейт : 1961 Кбит/сек
Ширина : 720 пикселей
Высота : 288 пикселей
Соотношение сторон : 2,500
Частота кадров : 23,976 кадра/сек
Цветовое пространство : YUV
Субдискретизация насыщенности : 4:2:0
Битовая глубина : 8 бит
Тип развёртки : Прогрессивная
Метод сжатия : С потерями
Бит/(Пиксели*Кадры) : 0.394
Размер потока : 1,07 Гбайт (79%)
Библиотека кодирования : XviD 73

Аудио #1
Идентификатор : 1
Формат : MPEG Audio
Версия формата : Version 1
Профиль формата : Layer 3
Идентификатор кодека : 55
Идентификатор кодека/Подсказка : MP3
Продолжительность : 1 ч. 18 м.
Вид битрейта : Постоянный
Битрейт : 256 Кбит/сек
Каналы : 2 канала
Частота : 44,1 КГц
Метод сжатия : С потерями
Размер потока : 143 Мбайт (10%)
Выравнивание : Разделение по промежуткам
Продолжительность промежутка : 42 мс. (1,00 видеокадр)
Время предзагрузки промежутка : 500 мс.
Библиотека кодирования : LAME3.99r
Настройки программы : -m s -V 4 -q 2 -lowpass 19.7

Аудио #2
Идентификатор : 2
Формат : MPEG Audio
Версия формата : Version 1
Профиль формата : Layer 3
Идентификатор кодека : 55
Идентификатор кодека/Подсказка : MP3
Продолжительность : 1 ч. 18 м.
Вид битрейта : Постоянный
Битрейт : 256 Кбит/сек
Каналы : 2 канала
Частота : 44,1 КГц
Метод сжатия : С потерями
Размер потока : 143 Мбайт (10%)
Выравнивание : Разделение по промежуткам
Продолжительность промежутка : 42 мс. (1,00 видеокадр)
Время предзагрузки промежутка : 500 мс.

Как скачать!

  • Похожие темы
    Ответы
    Просмотры
    Последнее сообщение

Вернуться в «Экранки»

Кто сейчас на конференции

Сейчас этот форум просматривают: нет зарегистрированных пользователей и 1 гость