Никто сегодня не спит в лесу / W lesie dzis nie zasnie nikt / Nobody Sleeps in the Woods Tonight (2020) WEB-DLRip-AVC скачать бесплатно торрент

Сказки на ночь.
Торрент [ Статус: Проверен ] Скачать Сидеров Личеров Размер
Nikto_segodnja_ne_spit_v_lesu.2020.WEB-DLRip-AV.torrent
228 7 1.54 ГБ
Аватара пользователя
admin
Администратор
Администратор
Сообщения: 10940
Зарегистрирован: 13 дек 2013, 01:15
Благодарил (а): 7 раз
Контактная информация:

Никто сегодня не спит в лесу / W lesie dzis nie zasnie nikt / Nobody Sleeps in the Woods Tonight (2020) WEB-DLRip-AVC

Сообщение admin » 29 июл 2020, 10:59

Год выхода: 2020
Жанр: Ужасы
Режиссер: Бартош Ковальски
В ролях: Юлия Венява-Наркевич, Михал Лупа, Виктория Гонсевска, Станислав Кивка, Себастьян Дела, Габриэла Мускала, Михал Збройа, Мирослав Зброевич, Пётр Цирвус, Оляф Любашенко

О фильме:
Группа подростков, зависимых от гаджетов, отправляются в трудовой офлайн-лагерь, где им запрещено пользоваться прелестями мира технологий. Однако, отправившись в поход, они сталкиваются с кошмаром, которого они не видели даже в самых тёмных уголках интернета. Перед лицом смертельной опасности, скрывающейся в лесу, молодые люди поймут, что такое настоящие дружба и любовь.

Изображение Изображение

Страна: Польша
Студия: Akson Studio, Plan Zet, Polski Instytut Sztuki Filmowej
Продолжительность: 01:42:28
Перевод: Любительский одноголосый | Хихидок
Субтитры: нет

► Без Рекламы!

Файл
Формат: Matroska
Качество: WEB-DLRip-AVC
Видео: 1046x438 at 24.000 fps, x264@L4.1, ~1700 kbps, 0.154 bpp
Аудио: AC3, 6 ch, ~448 kbps - | Русский | -


x264 [info]: frame I:894 Avg QP:15.69 size: 60645
x264 [info]: frame P:32654 Avg QP:17.45 size: 20286
x264 [info]: frame B:114013 Avg QP:19.84 size: 5164

General
Format : Matroska
Format version : Version 4
File size : 1.54 GiB
Duration : 1 h 42 min
Overall bit rate : 2 148 kb/s
Movie name : Никто сегодня не спит в лесу.(2020).WEB-DLRip-AVC.[-=DoMiNo=-]
Encoded date : UTC 2020-07-28 19:16:53
Writing application : mkvmerge v48.0.0 ('Fortress Around Your Heart') 64-bit
Writing library : libebml v1.4.0 + libmatroska v1.6.0
Cover : Yes
Attachments : Cover.jpg / Cover 2.jpg

Video
ID : 1
Format : AVC
Format/Info : Advanced Video Codec
Format profile : High@L4.1
Format settings : CABAC / 10 Ref Frames
Format settings, CABAC : Yes
Format settings, Reference : 10 frames
Codec ID : V_MPEG4/ISO/AVC
Duration : 1 h 42 min
Bit rate : 1 699 kb/s
Width : 1 046 pixels
Height : 438 pixels
Display aspect ratio : 2.40:1
Frame rate mode : Constant
Frame rate : 24.000 FPS
Color space : YUV
Chroma subsampling : 4:2:0
Bit depth : 8 bits
Scan type : Progressive
Bits/(Pixel*Frame) : 0.154
Stream size : 1.22 GiB (79%)
Writing library : x264 core 161 r3018 db0d417
Encoding settings : cabac=1 / ref=10 / deblock=1:-3:-3 / analyse=0x3:0x133 / me=umh / subme=10 / psy=1 / psy_rd=1.00:0.15 / mixed_ref=1 / me_range=32 / chroma_me=1 / trellis=2 / 8x8dct=1 / cqm=0 / deadzone=21,11 / fast_pskip=1 / chroma_qp_offset=-3 / threads=6 / lookahead_threads=1 / sliced_threads=0 / nr=0 / decimate=1 / interlaced=0 / bluray_compat=0 / constrained_intra=0 / bframes=8 / b_pyramid=2 / b_adapt=2 / b_bias=0 / direct=1 / weightb=1 / open_gop=0 / weightp=2 / keyint=250 / keyint_min=24 / scenecut=40 / intra_refresh=0 / rc_lookahead=60 / rc=crf / mbtree=0 / crf=19.0 / qcomp=0.60 / qpmin=0 / qpmax=69 / qpstep=4 / vbv_maxrate=50000 / vbv_bufsize=62500 / crf_max=0.0 / nal_hrd=none / filler=0 / ip_ratio=1.40 / pb_ratio=1.30 / aq=3:1.00
Language : English
Default : Yes
Forced : No
Color range : Limited
Color primaries : BT.709
Transfer characteristics : BT.709
Matrix coefficients : BT.709

Audio
ID : 2
Format : AC-3
Format/Info : Audio Coding 3
Commercial name : Dolby Digital
Codec ID : A_AC3
Duration : 1 h 42 min
Bit rate mode : Constant
Bit rate : 448 kb/s
Channel(s) : 6 channels
Channel layout : L R C LFE Ls Rs
Sampling rate : 48.0 kHz
Frame rate : 31.250 FPS (1536 SPF)
Compression mode : Lossy
Stream size : 328 MiB (21%)
Title : Хихидок
Language : Russian
Service kind : Complete Main
Default : Yes
Forced : No

Menu
00:00:00.000 : :Глава 01
00:05:30.000 : :Глава 02
00:11:00.000 : :Глава 03
00:16:30.000 : :Глава 04
00:22:00.000 : :Глава 05
00:27:30.000 : :Глава 06
00:33:00.000 : :Глава 07
00:38:30.000 : :Глава 08
00:44:00.000 : :Глава 09
00:49:30.000 : :Глава 10
00:55:00.000 : :Глава 11
01:00:30.000 : :Глава 12
01:06:00.000 : :Глава 13
01:11:30.000 : :Глава 14
01:17:00.000 : :Глава 15
01:22:30.000 : :Глава 16
01:28:00.000 : :Глава 17
01:33:30.000 : :Глава 18
01:39:00.000 : :Глава 19
Изображение Изображение Изображение Изображение Изображение Изображение Изображение Изображение Изображение

Как скачать!

  • Похожие темы
    Ответы
    Просмотры
    Последнее сообщение

Вернуться в «Ужасы,мистика»

Кто сейчас на конференции

Сейчас этот форум просматривают: нет зарегистрированных пользователей и 2 гостя