Калеуче: Зов моря / Caleuche: El llamado del mar (2012) WEB-DLRip | P скачать бесплатно торрент

Сказки на ночь.
Торрент [ Статус: Проверен ] Скачать Сидеров Личеров Размер
Kaleyche.Zov.morya.2012.avi.torrent
1 0 1.46 ГБ
Аватара пользователя
admin
Администратор
Администратор
Сообщения: 11037
Зарегистрирован: 13 дек 2013, 01:15
Благодарил (а): 7 раз
Контактная информация:

Калеуче: Зов моря / Caleuche: El llamado del mar (2012) WEB-DLRip | P

Сообщение admin » 20 мар 2014, 21:14

Страна: Чили
Жанр: ужасы, фэнтези, драма
Год выпуска: 2012
Продолжительность: 01:39:54

Перевод: Профессиональный (многоголосый закадровый)
Cубтитры: нет
Режиссер: Хорхе Ольгин / Jorge Olguín

В ролях: Матиас Хара, Хорхе Яньес, Уил Эдгар, Пабло Шварц, Лус Вальдивьесо, Марсело Алонсо, Виктор Монтеро, Эдуардо Паксеко, Каталина Сааведра, Жизель Итье, Хуан Пабло Миранда

Описание: Изабель — морской исследователь латинского происхождения, работающая в Соединенных Штатах, серьёзное заболевание которой вынуждает её покинуть работу. В целях оздоровления она отправляется на остров Чилоэ, что на юге Чили, и изучая историю своих предков, узнаёт о существовании удивительной легенды про корабль-призрак под названием Калеуче, который пагубно влияет на жизнь местных обитателей.



Качество видео: WEB-DLRip
Формат видео: AVI

Видео: Xvid 720x400 25fps 1888kbps
Аудио: Dolby AC3 48000Hz stereo 192kbps
General
Complete name : E:\Films\New\Kaleyche.Zov.morya.2012.avi
Format : AVI
Format/Info : Audio Video Interleave
File size : 1.46 GiB
Duration : 1h 39mn
Overall bit rate : 2 091 Kbps
Writing application : VirtualDubMod 1.5.10.3 | www.virtualdub-fr.org || (build 2550/release)
Writing library : VirtualDubMod build 2550/release

Video
ID : 0
Format : MPEG-4 Visual
Format profile : Advanced Simple@L5
Format settings, BVOP : 2
Format settings, QPel : No
Format settings, GMC : No warppoints
Format settings, Matrix : Default (MPEG)
Codec ID : XVID
Codec ID/Hint : XviD
Duration : 1h 39mn
Bit rate : 1 889 Kbps
Width : 720 pixels
Height : 400 pixels
Display aspect ratio : 16:9
Frame rate : 25.000 fps
Color space : YUV
Chroma subsampling : 4:2:0
Bit depth : 8 bits
Scan type : Progressive
Compression mode : Lossy
Bits/(Pixel*Frame) : 0.262
Stream size : 1.32 GiB (90%)
Writing library : XviD 1.2.1 (UTC 2008-12-04)

Audio
ID : 1
Format : AC-3
Format/Info : Audio Coding 3
Mode extension : CM (complete main)
Format settings, Endianness : Big
Codec ID : 2000
Duration : 1h 39mn
Bit rate mode : Constant
Bit rate : 192 Kbps
Channel(s) : 2 channels
Channel positions : Front: L R
Sampling rate : 48.0 KHz
Bit depth : 16 bits
Compression mode : Lossy
Stream size : 137 MiB (9%)
Alignment : Split accross interleaves
Interleave, duration : 40 ms (1.00 video frame)
Interleave, preload duration : 500 ms
Изображение

Как скачать!

  • Похожие темы
    Ответы
    Просмотры
    Последнее сообщение

Вернуться в «Ужасы,мистика»

Кто сейчас на конференции

Сейчас этот форум просматривают: нет зарегистрированных пользователей и 2 гостя