Кухня [01-15 из 20] (2014) SATRip скачать бесплатно торрент

Русские и стран ближнего зарубежья сериалы,на русском языке.
Правила форума
Скачать торрент русские сериалы
Торрент [ Статус: Проверен ] Скачать Сидеров Личеров Размер
691737.torrent
0 0 3.84 ГБ
_Fenixx_
Сообщения: 49
Зарегистрирован: 08 фев 2014, 17:14
Контактная информация:

Кухня [01-15 из 20] (2014) SATRip

Сообщение _Fenixx_ » 23 мар 2014, 17:18

Название: Кухня
Дата выхода: 2014
Жанр: Комедия
Продолжительность: ~ 25 минут серия

Режиссёр: Дмитрий Дьяченко
В ролях: Никита Тарасов, Дмитрий Назаров, Марк Богатырев, Дмитрий Нагиев, Юлия Такшина, Елена Подкаминская, Марина Могилевская, Сергей Лавыгин, Виктор Хориняк, Сергей Епишев, Ольга Кузьмина, Екатерина Кузнецова (IV), Михаил Тарабукин, Виктория Лукина, Елена Чернявская, Виталий Щанников, Сергей Беляев, Роман Индык, Евгения Храповицкая


Описание: Как и положено сериалу, который привык удивлять, новый сезон «Кухни» готовит сплошные сюрпризы. Кому-то из героев доведется свалиться в воду с палубы корабля, кому-то — попасть под колеса, а кому-то — и вовсе оказаться на улице… Официантка Настя уже на 6-ом месяце беременности. Повара Федю и су-шефа Леву ждут приключения на любовном фронте. В отношения Вики и Макса вмешается серьезный для Максима соперник. Макс, чтобы вернуть Вику, не будет жалеть ни своего, ни чужого здоровья… Но главное событие произойдет все-таки именно на кухне «Кухни». Там появится первая женщина — су-шеф Катя, профессионал в супермодном кулинарном направлении молекулярной кухни. И хотя циничный шеф Виктор Баринов продолжает считать, что «баба на корабле — то есть на кухне — к беде», в нового повара влюбится почти вся команда «Клода Моне».
Внимание! Раздача ведётся путём добавления новых серий; при каждом добавлении создётся новый торрент. Чтобы начать докачку новой серии, пользователям необходимо сделать следующее:
(1) остановить скачивание,
(2) удалить старый торрент у себя из клиента (старые серии удалять не надо),
(3) скачать новый торрент и запустить его у себя в клиенте вместо старого, при этом указать клиенту путь в старую папку куда и должно происходить скачивание новых серий.

Ваш клиент при этом должен произвести хеширование (проверку) старой папки (если не производит сам - помогите ему сделать это), и будет докачивать только те серии которых у вас ещё нет. Старые серии при этом не удаляются, а продолжают раздаваться!

Eсли вы уже удалили старые серии, то предотвратить повторную закачку старых серий можно, отжав галочку в соответсвующих местах при запуске нового торрента. По возможности, желательно не удалять старые серии как можно дольше чтобы релизёр не столько продолжал раздавать старые серии, а смог сконцентрироваться на новых.
Код:
Формат : AVI
Формат/Информация : Audio Video Interleave
Размер файла : 291 Мбайт
Длительность : 24 м.
Общий поток : 1638 Кбит/сек
Библиотека кодирования : VirtualDub build 35491/release

Видео
Идентификатор : 0
Формат : MPEG-4 Visual
Параметр BVOP формата : 1
Параметр QPel формата : Нет
Параметр GMC формата : Без точки перехода
Параметр матрицы формата : Default (H.263)
Режим смешивания : Сжатый битовый поток
Идентификатор кодека : DX50
Идентификатор кодека/Подсказка : DivX 5
Длительность : 24 м.
Битрейт : 1500 Кбит/сек
Ширина : 720 пикс.
Высота : 400 пикс.
Соотношение сторон : 16:9
Частота кадров : 25,000 кадр/сек
Цветовое пространство : YUV
Подвыборка цветности : 4:2:0
Битовая глубина : 8 бит
Тип развёртки : Прогрессивная
Метод сжатия : С потерями
Бит/(Пиксели*Кадры) : 0.208
Размер потока : 267 Мбайт (92%)
Библиотека кодирования : DivX 6.8.5 (UTC 2009-08-20)

Аудио
Идентификатор : 1
Формат : MPEG Audio
Версия формата : Version 1
Профиль формата : Layer 3
Режим : Joint stereo
Расширение режима : MS Stereo
Идентификатор кодека : 55
Идентификатор кодека/Подсказка : MP3
Длительность : 24 м.
Вид битрейта : Постоянный
Битрейт : 128 Кбит/сек
Канал(ы) : 2 канала(ов)
Частота : 48,0 КГц
Метод сжатия : С потерями
Размер потока : 22,8 Мбайт (8%)
Выравнивание : Разделение по промежуткам
Длительность промежутка : 40 мс. (1,00 видеокадр)
Время предзагрузки промежутка : 500 ms
Качество: SATRip
Формат: AVi
Видео кодек: XviD
Аудио кодек: MP3
Видео: 720x400 (1.80:1), 25 fps, XviD build 64 ~1500 kbps avg
Аудио: MPEG Audio Layer 3 48000Hz stereo 128Kbps
ИзображениеИзображениеИзображение
ИзображениеИзображениеИзображение
ИзображениеВиктор Баринов
Виктор Баринов — лучший шеф-повар Москвы. На кухне для него нет ничего невозможного. Оборотной стороной медали этого идеального образа является злоупотребление алкоголем, страсть к азартным играм и невыносимый характер. Из самых преданных друзей у Виктора есть любимая рыбка Аркадий, которому Баринов любит излить душу за бокалом коньяка.
Роль исполняет актер Дмитрий Назаров
ИзображениеМаксим Лавров
Простой парень из Воронежа, полный амбиций и надежд стать знаменитым шеф-поваром. Именно за этим он приехал в Москву и чудом устроился на работу ресторан «Claude Monet». Макс азартен, находчив и очень смел, у него хорошее чувство юмора и трезвая самооценка. Благодаря своему обаянию он очень нравится девушкам, но сейчас для Макса главное — кухня, а девушки потом.
Роль исполняет актер Марк Богатырев
ИзображениеВиктория Гончарова
Успешная 27-летняя карьеристка с деловым подходом к личной жизни. Виктория, переехавшая в Москву из Калининграда, привыкла везде пробиваться сама и благодаря своей целеустремленности и организаторским способностям она добилась в жизни немалых успехов. Теперь она арт-директор популярного ресторана столицы и готова пойти по головам, чтобы обеспечить ему славу лучшего места в городе или даже стране.
Роль исполняет актриса Елена Подкаминская
ИзображениеКатя
Новый человек на кухне. Первая женщина су-шеф в команде ресторана «Клод Моне», профессионал в супермодном кулинарном направлении молекулярной кухни.
Роль исполняет актриса Валерия Федорович

Как скачать!

_Fenixx_
Сообщения: 49
Зарегистрирован: 08 фев 2014, 17:14
Контактная информация:

Re: Кухня [01-13 из 20] (2014) SATRip

Сообщение _Fenixx_ » 24 мар 2014, 18:25

Добавлена 13 серия!!!
Приятного просмотра!!!

_Fenixx_
Сообщения: 49
Зарегистрирован: 08 фев 2014, 17:14
Контактная информация:

Re: Кухня [01-15 из 20] (2014) SATRip

Сообщение _Fenixx_ » 26 мар 2014, 18:32

Добавлена 14-15 серии!!!
Приятного просмотра!!!

Ответить
  • Похожие темы
    Ответы
    Просмотры
    Последнее сообщение

Вернуться в «Русские сериалы»

Кто сейчас на конференции

Сейчас этот форум просматривают: нет зарегистрированных пользователей и 4 гостя