Маша и Медведь [01-41] (2009-2014) BDRip-AVC + WEB-DLRip-AVC скачать бесплатно торрент

Торрент [ Статус: Проверен ] Скачать Сидеров Личеров Размер
Masha.i.Medved.torrent
3 3 4.18 ГБ
Аватара пользователя
admin
Администратор
Администратор
Сообщения: 11037
Зарегистрирован: 13 дек 2013, 01:15
Благодарил (а): 7 раз
Контактная информация:

Маша и Медведь [01-41] (2009-2014) BDRip-AVC + WEB-DLRip-AVC

Сообщение admin » 13 апр 2014, 22:12

Страна: Россия
Жанр: мультфильм, короткометражка, комедия, семейный
Год выпуска: 2009-2014
Продолжительность: серия ~ 7 минут
Перевод: не требуется
Оригинальная аудиодорожка: русский
Cубтитры: нет

Режиссеры: Олег Кузовков, Олег Ужинов, Денис Червяцов...
Роли озвучивали: Алина Кукушкина, Борис Кутневич, Эдуард Назаров

Описание: Мультсериал про девочку Машу, которая никому не дает покоя, и в первую очередь — своему другу Медведю.



Исходник: Blu-ray 1080p + WEB-DL 1080p
Тип релиза: BDRip-AVC + WEB-DLRip-AVC
Контейнер: MKV

Видео: 1024х576, (16:9), 24,000 fps, H264 ~ 1870 kbps, 0.132 bit/pixel (01-38)
Видео: 1024х576, (16:9), 25,000 fps, H264 ~ 1870 kbps, 0.127 bit/pixel (39-41)
Аудио: 48 kHz, AC3, 2 ch, 192.00 kbps

Изображение Изображение
BDRip-AVC
Общее
Полное имя : Masha.i.Medved'.BDRip-AVC
Формат : Matroska
Версия формата : Version 2
Размер файла : 106 Мбайт
Продолжительность : 7 м. 9 с.
Общий поток : 2061 Кбит/сек
Название фильма : 27.Kartina.maslom_[New-team]_by_AVP_Studio
Дата кодирования : UTC 2013-05-29 11:57:52
Программа кодирования : mkvmerge v5.0.1 ('Es ist Sommer') built on Nov 6 2011 16:23:40
Библиотека кодирования : libebml v1.2.2 + libmatroska v1.3.0

Видео
Идентификатор : 1
Формат : AVC
Формат/Информация : Advanced Video Codec
Профиль формата : High@L4.1
Параметр CABAC формата : Да
Параметр ReFrames формата : 11 кадров
Идентификатор кодека : V_MPEG4/ISO/AVC
Продолжительность : 7 м. 9 с.
Битрейт : 1870 Кбит/сек
Ширина : 1024 пикселя
Высота : 576 пикселей
Соотношение сторон : 16:9
Частота кадров : 24,000 кадра/сек
Цветовое пространство : YUV
Субдискретизация насыщенности : 4:2:0
Битовая глубина : 8 бит
Тип развёртки : Прогрессивная
Бит/(Пиксели*Кадры) : 0.132
Размер потока : 93,7 Мбайт (89%)
Библиотека кодирования : x264 core 130 r2273 b3065e6
Настройки программы : cabac=1 / ref=10 / deblock=1:-3:-2 / analyse=0x3:0x113 / me=umh / subme=10 / psy=1 / psy_rd=1.00:0.10 / mixed_ref=1 / me_range=32 / chroma_me=1 / trellis=1 / 8x8dct=1 / cqm=0 / deadzone=21,11 / fast_pskip=0 / chroma_qp_offset=-3 / threads=3 / lookahead_threads=1 / sliced_threads=0 / nr=0 / decimate=1 / interlaced=0 / bluray_compat=0 / constrained_intra=0 / bframes=10 / b_pyramid=2 / b_adapt=1 / b_bias=0 / direct=3 / weightb=1 / open_gop=0 / weightp=2 / keyint=240 / keyint_min=23 / scenecut=40 / intra_refresh=0 / rc_lookahead=60 / rc=2pass / mbtree=1 / bitrate=1870 / ratetol=1.0 / qcomp=0.60 / qpmin=0 / qpmax=69 / qpstep=4 / cplxblur=20.0 / qblur=0.5 / ip_ratio=1.40 / aq=1:1.00
Default : Да
Forced : Нет

Аудио
Идентификатор : 2
Формат : AC-3
Формат/Информация : Audio Coding 3
Профиль формата : Dolby Digital
Расширение режима : CM (complete main)
Идентификатор кодека : A_AC3
Продолжительность : 7 м. 9 с.
Вид битрейта : Постоянный
Битрейт : 192 Кбит/сек
Каналы : 2 канала
Расположение каналов : Front: L R
Частота : 48,0 КГц
Битовая глубина : 16 бит
Метод сжатия : С потерями
Размер потока : 9,84 Мбайт (9%)
Заголовок : Источник BDRemux
Язык : Russian
Default : Да
Forced : Нет

WEB-DLRip-AVC
Общее
Полное имя : Masha.i.Medved'.WEB-DLRip-AVC
Формат : Matroska
Версия формата : Version 2
Размер файла : 101 Мбайт
Продолжительность : 6 м. 49 с.
Общий поток : 2066 Кбит/сек
Дата кодирования : UTC 2014-03-23 09:27:44
Программа кодирования : mkvmerge v6.1.0 ('Old Devil') built on Mar 4 2013 09:10:42
Библиотека кодирования : libebml v1.3.0 + libmatroska v1.4.0

Видео
Идентификатор : 1
Формат : AVC
Формат/Информация : Advanced Video Codec
Профиль формата : High@L4.1
Параметр CABAC формата : Да
Параметр ReFrames формата : 8 кадров
Идентификатор кодека : V_MPEG4/ISO/AVC
Продолжительность : 6 м. 49 с.
Битрейт : 1870 Кбит/сек
Ширина : 1024 пикселя
Высота : 576 пикселей
Соотношение сторон : 16:9
Режим частоты кадров : Постоянный
Частота кадров : 25,000 кадров/сек
Цветовое пространство : YUV
Субдискретизация насыщенности : 4:2:0
Битовая глубина : 8 бит
Тип развёртки : Прогрессивная
Бит/(Пиксели*Кадры) : 0.127
Размер потока : 89,4 Мбайт (89%)
Библиотека кодирования : x264 core 138 r2356 a1d3d17
Настройки программы : cabac=1 / ref=8 / deblock=1:-3:-2 / analyse=0x3:0x113 / me=umh / subme=10 / psy=1 / psy_rd=1.00:0.05 / mixed_ref=1 / me_range=32 / chroma_me=1 / trellis=2 / 8x8dct=1 / cqm=0 / deadzone=21,11 / fast_pskip=1 / chroma_qp_offset=-3 / threads=3 / lookahead_threads=1 / sliced_threads=0 / nr=0 / decimate=0 / interlaced=0 / bluray_compat=0 / constrained_intra=0 / bframes=8 / b_pyramid=2 / b_adapt=2 / b_bias=0 / direct=3 / weightb=1 / open_gop=0 / weightp=2 / keyint=250 / keyint_min=25 / scenecut=40 / intra_refresh=0 / rc_lookahead=40 / rc=2pass / mbtree=1 / bitrate=1870 / ratetol=1.0 / qcomp=0.60 / qpmin=0 / qpmax=69 / qpstep=4 / cplxblur=20.0 / qblur=0.5 / ip_ratio=1.40 / aq=1:1.00
Default : Да
Forced : Нет

Аудио
Идентификатор : 2
Формат : AC-3
Формат/Информация : Audio Coding 3
Расширение режима : CM (complete main)
Параметр Endianness формата : Big
Идентификатор кодека : A_AC3
Продолжительность : 6 м. 49 с.
Вид битрейта : Постоянный
Битрейт : 192 Кбит/сек
Каналы : 2 канала
Расположение каналов : Front: L R
Частота : 48,0 КГц
Битовая глубина : 16 бит
Метод сжатия : С потерями
Размер потока : 9,37 Мбайт (9%)
Default : Да
Forced : Нет
01. Первая встреча!(00:06:53)
02. До весны не будить!(00:06:53)
03. Раз, два, три! Ёлочка, гори!(00:08:06)
04. Весна пришла!(00:07:01)
05. Ловись рыбка!(00:06:55)
06. Следы невиданных зверей(00:07:17)
07. С волками жить...(00:07:13)
08. Позвони мне, позвони!(00:07:11)
09. День варенья(00:06:50)
10. Праздник на льду(00:06:52)
11. Первый раз в первый класс(00:07:07)
12. Граница на замке(00:06:59)
13. Кто не спрятался, я не виноват(00:06:41)
14. Лыжню!(00:06:59)
15. Будьте здоровы!(00:06:58)
16. Маша + каша(00:06:51)
17. Дальний родственник(00:06:58)
18. Большая стирка(00:06:46)
19. Репетиция оркестра(00:07:13)
20. Усатый полосатый(00:07:14)
21. Один дома(00:07:11)
22. Дышите! Не дышите!(00:07:10)
23. Подкидыш (00:07:13)
24. Приятного аппетита (00:07:12)
25. Фокус-покус (00:07:12)
26. Осторожно, ремонт! (00:07:11)
27. Картина маслом (00:07:09)
28. Ход конём (00:06:54)
29. Хит сезона (00:06:53)
30. Витамин роста (00:06:59)
31. Когда все дома (00:06:54)
32. Новая метла (00:06:57)
33. Сладкая жизнь (00:06:56)
34. Фотография 9х12 (00:06:56)
35. Трудно быть маленьким (00:06:48)
36. Двое на одного (00:06:50)
37. Большое путешествие (00:06:53)
38. Нынче всё наоборот (00:06:53)
39. Сказка на ночь (00:06:49)
40. Красота страшная сила (00:06:48)
41. Дело в шляпе (00:06:54)

Как скачать!

  • Похожие темы
    Ответы
    Просмотры
    Последнее сообщение

Вернуться в «Мультсериалы»

Кто сейчас на конференции

Сейчас этот форум просматривают: нет зарегистрированных пользователей и 1 гость