47 pонинoв в 3Д / 47 Rоnin 3D (2013) BDRip 1080p | Half OverUnder скачать бесплатно торрент

Скачать фильмы в 3D
Торрент [ Статус: Проверен ] Скачать Сидеров Личеров Размер
47Ronin_2013_3D-halfOU.mkv.torrent
1 0 8.29 ГБ
Аватара пользователя
admin
Администратор
Администратор
Сообщения: 11032
Зарегистрирован: 13 дек 2013, 01:15
Благодарил (а): 7 раз
Контактная информация:

47 pонинoв в 3Д / 47 Rоnin 3D (2013) BDRip 1080p | Half OverUnder

Сообщение admin » 26 мар 2014, 20:35

Год выпуска: 2013
Страна: США (Universal Pictures, Relativity Media)
Жанр: Фэнтези, Боевик, Приключения
Продолжительность: 1:58:43

Перевод: Профессиональный дублированный ("чистый звук")

Режиссер: Карл Ринш / Carl Rinsch

Роли исполняли (дублировали):
Kai - Киану Ривз (Анатолий Белый)
Ôishi - Хироюки Санада (Илья Исаев)
Mika - Ко Шибасаки (Элиза Мартиросова)
Lord Kira - Таданобу Асано (Сергей Смирнов)
Lord Asano - Мин Танака (Владимир Левашёв)
Chikara - Джин Аканиши
Shogun Tsunayoshi - Кэри-Хироюки Тагава (Игорь Старосельцев)
Witch - Ринко Кикути (Татьяна Шитова)
Tengu Lord - Того Игава (Сергей Чонишвили)
Shogun's Adjutant - Танрох Ишида
Yasuno - Масаёси Ханеда (Константин Карасик)
Hazama - Хироси Согабэ
Basho - Такато Йонемото (Иван Жарков)
Hara - Хироси Ямада
Horibe - Шу Накаджима (Александр Головчанский)

Описание: Таинственный странник, преданный всеми, проданный в рабство, избранный судьбой вершить месть, станет одним из 47 воинов, бросивших вызов смерти. Явившись из другого мира, он восстанет против темных сил, чтобы защитить свою запретную любовь.



Премьера: 6 декабря 2013 (1 января 2014)
Релиз на Blu-Ray (DVD) (Россия): 24 апреля 2014
Бюджет: $175 000 000
Кассовые сборы: $146 152 054

Качество: BDRip 1080p
Контейнер: MKV
Формат 3D: Half OverUnder / Вертикальная анаморфная стереопара
Порядок ракурсов: левый ракурс первый
Видео кодек: x264
Аудио кодек: AC3
Видео: AVC / 23,976 fps / 1920х1080p / ~8.9 Mbps

Аудио:
#1 - Русский / AC3 / 48 KHz / 2 ch / 256 Kbps (Дубляж - "чистый звук") (реально - моно)
#2 - Английский / AC3 / 48 KHz / 5.1 ch / 640 Kbps (Original - BD 3D)

Субтитры Внешние (SRT UTF-8):
#1 - English Full
#2 - English SDH

Сэмпл - http://www.sendspace.com/file/45zxie
General
Unique ID : 213474280113260616132047481583282854358 (0xA099A69D9FF387D1B2B3E645858299D6)
Complete name : E:\47Ronin(2013)3D-halfOUClearSound\47Ronin(2013)3D-halfOUClearSound.mkv
Format : Matroska
Format version : Version 2
File size : 8.29 GiB
Duration : 1h 58mn
Overall bit rate : 9 995 Kbps
Movie name : 47 ронинов / 47 Ronin (2013) 3D
Encoded date : UTC 2014-03-23 05:06:20
Writing application : mkvmerge v5.8.0 ('No Sleep / Pillow') built on Sep 2 2012 15:37:04
Writing library : libebml v1.2.3 + libmatroska v1.3.0

Video
ID : 1
Format : AVC
Format/Info : Advanced Video Codec
Format profile : High@L4.1
Format settings, CABAC : Yes
Format settings, ReFrames : 4 frames
Codec ID : V_MPEG4/ISO/AVC
Duration : 1h 58mn
Bit rate : 8 900 Kbps
Width : 1 920 pixels
Height : 1 080 pixels
Display aspect ratio : 16:9
Frame rate mode : Constant
Frame rate : 23.976 fps
Color space : YUV
Chroma subsampling : 4:2:0
Bit depth : 8 bits
Scan type : Progressive
Bits/(Pixel*Frame) : 0.179
Stream size : 7.38 GiB (89%)
Title : BDRip by Ash61
Writing library : x264 core 129 r2245 bc13772
Encoding settings : cabac=1 / ref=4 / deblock=1:-3:-3 / analyse=0x3:0x113 / me=umh / subme=10 / psy=1 / psy_rd=1.00:0.15 / mixed_ref=1 / me_range=32 / chroma_me=1 / trellis=2 / 8x8dct=1 / cqm=0 / deadzone=21,11 / fast_pskip=1 / chroma_qp_offset=-3 / threads=12 / lookahead_threads=2 / sliced_threads=0 / nr=0 / decimate=1 / interlaced=0 / bluray_compat=0 / constrained_intra=0 / bframes=8 / b_pyramid=2 / b_adapt=2 / b_bias=0 / direct=3 / weightb=1 / open_gop=0 / weightp=2 / keyint=250 / keyint_min=23 / scenecut=40 / intra_refresh=0 / rc_lookahead=60 / rc=crf / mbtree=1 / crf=17.0 / qcomp=0.70 / qpmin=0 / qpmax=69 / qpstep=4 / vbv_maxrate=40000 / vbv_bufsize=30000 / crf_max=0.0 / nal_hrd=none / frame-packing=4 / ip_ratio=1.40 / aq=1:0.70
Language : English
Default : Yes
Forced : No

Audio #1
ID : 2
Format : AC-3
Format/Info : Audio Coding 3
Mode extension : CM (complete main)
Format settings, Endianness : Big
Codec ID : A_AC3
Duration : 1h 58mn
Bit rate mode : Constant
Bit rate : 256 Kbps
Channel(s) : 2 channels
Channel positions : Front: L R
Sampling rate : 48.0 KHz
Bit depth : 16 bits
Compression mode : Lossy
Stream size : 217 MiB (3%)
Title : Дубляж - "чистый звук"
Language : Russian
Default : Yes
Forced : No

Audio #2
ID : 3
Format : AC-3
Format/Info : Audio Coding 3
Mode extension : CM (complete main)
Format settings, Endianness : Big
Codec ID : A_AC3
Duration : 1h 58mn
Bit rate mode : Constant
Bit rate : 640 Kbps
Channel(s) : 6 channels
Channel positions : Front: L C R, Side: L R, LFE
Sampling rate : 48.0 KHz
Bit depth : 16 bits
Compression mode : Lossy
Stream size : 543 MiB (6%)
Title : Original - BD 3D
Language : English
Default : No
Forced : No

Menu
00:00:00.000 : :1
00:04:27.559 : :2
00:11:12.088 : :3
00:16:27.820 : :4
00:20:11.836 : :5
00:26:52.319 : :6
00:31:02.944 : :7
00:36:10.627 : :8
00:43:36.614 : :9
00:50:14.511 : :10
00:54:59.421 : :11
00:59:54.049 : :12
01:09:57.735 : :13
01:13:59.018 : :14
01:19:12.247 : :15
01:24:17.386 : :16
01:33:00.825 : :17
01:38:55.555 : :18
01:44:41.609 : :19
01:48:38.303 : :20
Изображение Изображение Изображение Изображение Изображение

Как скачать!

  • Похожие темы
    Ответы
    Просмотры
    Последнее сообщение

Вернуться в «3D фильмы»

Кто сейчас на конференции

Сейчас этот форум просматривают: нет зарегистрированных пользователей и 1 гость