Охота / The Hunt (2020) WEB-DL 1080p | HDrezka Studio

Фильмы высокого разрешения в формате HD
Торрент [ Статус: Проверен ] Скачать Сидеров Личеров Размер
Ohota.2020.1080p.WEB-DL.mk.torrent
945 90 3.96 ГБ
Аватара пользователя
admin
Администратор
Администратор
Сообщения: 10363
Зарегистрирован: 13 дек 2013, 01:15
Благодарил (а): 7 раз
Контактная информация:

Охота / The Hunt (2020) WEB-DL 1080p | HDrezka Studio

Сообщение admin » 24 мар 2020, 20:56

Информация о фильме
Год выхода: 2020
Жанр: ужасы, боевик, триллер
Режиссер: Крэйг Зобел
В ролях: Бетти Гилпин, Эмма Робертс, Итэн Сапли, Хилари Суэнк, Джастин Хартли, Дж.С. МакКензи, Айк Баринхолц, Гленн Хоуертон, Эми Мэдиган, Мэйкон Блэр, Уэйн Дювалл, Кристофер Берри, Стерджил Симпсон, Кейт Ноулин

О фильме: 12 незнакомцев просыпаются в глухом лесу. Они понятия не имеют, где находятся и как здесь оказались. Они даже не подозревают, что были избраны... стать дичью. Сезон охоты официально объявляется открытым.

Изображение Изображение

Выпущено: США
Студия: Blumhouse Productions, White Rabbit
Продолжительность: 01:30:03
Озвучивание: Профессиональный многоголосый | HDrezka Studio

Файл
Формат: MKV
Качество: WEB-DL 1080p
Видео: AVC/x264, 5206 Kb/s, 1920x800, 23.976 fps
Аудио 1: 48 kHz, AC3 Dolby Digital, 3/2 (L,C,R,l,r) + LFE ch, ~448 kbps | русский
Аудио 2: 48 kHz, E-AC3, 3/2 (L,C,R,l,r) + LFE ch, ~640 kbps | английский
Субтитры: Russian (Full), English (SDH)
Дополнительно: Нет.


Format: Matroska
Format version: Version 4 / Version 2
File size: 3.96 GiB
Duration: 1 h 30 min
Overall bit rate: 6 297 kb/s

Encoded date: UTC 2020-03-24 14:48:33
Writing application: mkvmerge v8.3.0 ('Over the Horizon') 64bit
Writing library: libebml v1.3.1 + libmatroska v1.4.2

Video
ID: 1
Format: AVC
Format/Info: Advanced Video Codec
Format profile: High@L4
Format settings, CABAC: Yes
Format settings, Reference frames: 4 frames
Codec ID: V_MPEG4/ISO/AVC
Duration: 1 h 30 min
Bit rate mode: Constant
Bit rate: 5 206 kb/s
Nominal bit rate: 10 000 kb/s
Width: 1 920 pixels
Height: 800 pixels
Display aspect ratio: 2.40:1
Frame rate mode: Constant
Frame rate: 23.976 (24000/1001) FPS
Color space: YUV
Chroma subsampling: 4:2:0
Bit depth: 8 bits
Scan type: Progressive
Bits/(Pixel*Frame): 0.141
Stream size: 3.27 GiB (83%)
Default: Yes
Forced: No
Color range: Limited
Color primaries: BT.709
Transfer characteristics: BT.709
Matrix coefficients: BT.709

Audio #1
ID: 2
Format: AC-3
Format/Info: Audio Coding 3
Mode extension: CM (complete main)
Format settings, Endianness: Big
Codec ID: A_AC3
Duration: 1 h 30 min
Bit rate mode: Constant
Bit rate: 448 kb/s
Channel(s): 6 channels
Channel positions: Front: L C R, Side: L R, LFE
Sampling rate: 48.0 kHz
Frame rate: 31.250 FPS (1536 spf)
Bit depth: 16 bits
Compression mode: Lossy
Stream size: 289 MiB (7%)
Title: MVO | HDrezka Studio
Language: Russian
Default: Yes
Forced: No

Audio #2
ID: 3
Format: E-AC-3
Format/Info: Enhanced Audio Coding 3
Format settings, Endianness: Big
Codec ID: A_EAC3
Duration: 1 h 30 min
Bit rate mode: Constant
Bit rate: 640 kb/s
Channel(s): 6 channels
Channel positions: Front: L C R, Side: L R, LFE
Sampling rate: 48.0 kHz
Frame rate: 187.500 FPS (256 spf)
Compression mode: Lossy
Stream size: 412 MiB (10%)
Language: English
Default: No
Forced: No

Text #1
ID: 4
Format: UTF-8
Codec ID: S_TEXT/UTF8
Codec ID/Info: UTF-8 Plain Text
Duration: 1 h 24 min
Bit rate: 90 b/s
Count of elements: 1239
Stream size: 55.4 KiB (0%)
Title: Full
Language: Russian
Default: Yes
Forced: No

Text #2
ID: 5
Format: UTF-8
Codec ID: S_TEXT/UTF8
Codec ID/Info: UTF-8 Plain Text
Duration: 1 h 22 min
Bit rate: 57 b/s
Count of elements: 1278
Stream size: 34.9 KiB (0%)
Language: English
Default: No
Forced: No

Text #3
ID: 6
Format: UTF-8
Codec ID: S_TEXT/UTF8
Codec ID/Info: UTF-8 Plain Text
Duration: 1 h 29 min
Bit rate: 62 b/s
Count of elements: 1572
Stream size: 40.9 KiB (0%)
Title: SDH
Language: English
Default: No
Forced: No
Изображение Изображение
Изображение Изображение

Как скачать!

  • Похожие темы
    Ответы
    Просмотры
    Последнее сообщение

Вернуться в «Фильмы HD»

Кто сейчас на конференции

Сейчас этот форум просматривают: Yandex [Bot] и 10 гостей