Того / Togo (2019) WEB-DL 2160p HDR скачать бесплатно торрент

Скачать торрент фильмы в формате 4K
Торрент [ Статус: Проверен ] Скачать Сидеров Личеров Размер
Того Togo (Эриксон Кор Ericson Core) [2019, США, драма, приключе...
16 5 13.14 ГБ
Аватара пользователя
admin
Администратор
Администратор
Сообщения: 10940
Зарегистрирован: 13 дек 2013, 01:15
Благодарил (а): 7 раз
Контактная информация:

Того / Togo (2019) WEB-DL 2160p HDR

Сообщение admin » 23 июл 2020, 20:19

Страна: США
Студия: The Walt Disney Company, Walt Disney Pictures
Жанр: драма, приключения, семейный, биография, история
Год выпуска: 2019
Продолжительность: 01:53:40
Перевод: Профессиональный (многоголосый закадровый) HDRezka Studio
Субтитры: русские (forced, MENINSUB), английские (full, SDH)
Оригинальная аудиодорожка: английский
Режиссер: Эриксон Кор / Ericson Core

В ролях: Уиллем Дефо, Джулианна Николсон, Кристофер Хейердал, Ричард Дормер, Эдриан Дорваль, Madeline Wickins, Майкл Грейес, Нив Нилсен, Николай Николаефф, Торбьорн Харр

Описание: Пёс Того в 1925 году помог предотвратить эпидемию дифтерии в городе Ном, Аляска. В упряжке с другими ездовыми собаками Того, несмотря на страшные погодные условия, смог доставить в город посылку с антитоксином, остановившим распространение болезни.

Сэмпл Изображение Изображение

Тип релиза: WEB-DL 2160p [Togo 2019 2160p WEB-DL DD+5.1 HDR HEVC-WATCHER]
Контейнер: MKV
Видео: MPEG-H HEVC Video / 15,3 Mbps / 3840x2160 / 23,976 fps / 16:9 / Main 10 @ Level 5.1 @ High / 4:2:0 / 10 bits / HDR / BT.2020
Аудио 1: Russian AC3 / 5.1 / 48 kHz / 448 kbps |MVO, HDRezka Studio|
Аудио 2: English E-AC3+Atmos / 5.1 / 48 kHz / 768 kbps |original|
Формат субтитров: softsub [SRT]


Общее
Уникальный идентификатор : 273193063899826203102313206852141670702 (0xCD8711FB0288AB987972AF5127D7612E)
Полное имя : H:\UHD\Того.2019.2160p.WEB-DL.HDR.mkv
Формат : Matroska
Версия формата : Version 4
Размер файла : 13,1 Гбайт
Продолжительность : 1 ч. 53 м.
Общий поток : 16,5 Мбит/сек
Дата кодирования : UTC 2020-05-08 14:49:07
Программа кодирования : mkvmerge v46.0.0 ('No Deeper Escape') 64-bit
Библиотека кодирования : libebml v1.3.10 + libmatroska v1.5.2
Attachments : poster.jpg

Видео
Идентификатор : 1
Формат : HEVC
Формат/Информация : High Efficiency Video Coding
Профиль формата : Main 10@L5@High
Идентификатор кодека : V_MPEGH/ISO/HEVC
Продолжительность : 1 ч. 53 м.
Битрейт : 15,3 Мбит/сек
Ширина : 3 840 пикселей
Высота : 2 160 пикселей
Соотношение сторон : 16:9
Режим частоты кадров : Постоянный
Частота кадров : 23,976 (24000/1001) кадра/сек
Цветовое пространство : YUV
Субдискретизация насыщенности : 4:2:0
Битовая глубина : 10 бит
Бит/(Пиксели*Кадры) : 0.077
Размер потока : 12,2 Гбайт (93%)
Default : Да
Forced : Нет
Цветовой диапазон : Limited
Основные цвета : BT.2020
Характеристики трансфера : PQ
Коэффициенты матрицы : BT.2020 non-constant

Аудио #1
Идентификатор : 2
Формат : AC-3
Формат/Информация : Audio Coding 3
Коммерческое название : Dolby Digital
Идентификатор кодека : A_AC3
Продолжительность : 1 ч. 53 м.
Вид битрейта : Постоянный
Битрейт : 448 Кбит/сек
Каналы : 6 каналов
Channel layout : L R C LFE Ls Rs
Частота : 48,0 КГц
Частота кадров : 31,250 кадров/сек (1536 SPF)
Метод сжатия : С потерями
Размер потока : 364 Мбайт (3%)
Заголовок : MVO, HDRezka Studio
Язык : Russian
Service kind : Complete Main
Default : Да
Forced : Нет

Аудио #2
Идентификатор : 3
Формат : E-AC-3 JOC
Формат/Информация : Enhanced AC-3 with Joint Object Coding
Коммерческое название : Dolby Digital Plus with Dolby Atmos
Идентификатор кодека : A_EAC3
Продолжительность : 1 ч. 53 м.
Вид битрейта : Постоянный
Битрейт : 768 Кбит/сек
Каналы : 6 каналов
Channel layout : L R C LFE Ls Rs
Частота : 48,0 КГц
Частота кадров : 31,250 кадров/сек (1536 SPF)
Метод сжатия : С потерями
Размер потока : 622 Мбайт (5%)
Язык : English
Service kind : Complete Main
Default : Нет
Forced : Нет
Complexity index : 16
Number of dynamic objects : 15
Bed channel count : 1 канал
Bed channel configuration : LFE

Текст #1
Идентификатор : 4
Формат : UTF-8
Идентификатор кодека : S_TEXT/UTF8
Идентификатор кодека/Информация : UTF-8 Plain Text
Продолжительность : 1 ч. 43 м.
Битрейт : 1 бит/сек
Count of elements : 16
Размер потока : 1,02 Кбайт (0%)
Заголовок : forced
Язык : Russian
Default : Да
Forced : Нет

Текст #2
Идентификатор : 5
Формат : UTF-8
Идентификатор кодека : S_TEXT/UTF8
Идентификатор кодека/Информация : UTF-8 Plain Text
Продолжительность : 1 ч. 43 м.
Битрейт : 56 бит/сек
Count of elements : 888
Размер потока : 42,7 Кбайт (0%)
Заголовок : MENINSUB
Язык : Russian
Default : Нет
Forced : Нет

Текст #3
Идентификатор : 6
Формат : UTF-8
Идентификатор кодека : S_TEXT/UTF8
Идентификатор кодека/Информация : UTF-8 Plain Text
Продолжительность : 1 ч. 41 м.
Битрейт : 34 бит/сек
Count of elements : 881
Размер потока : 25,3 Кбайт (0%)
Заголовок : full
Язык : English
Default : Нет
Forced : Нет

Текст #4
Идентификатор : 7
Формат : UTF-8
Идентификатор кодека : S_TEXT/UTF8
Идентификатор кодека/Информация : UTF-8 Plain Text
Продолжительность : 1 ч. 42 м.
Битрейт : 38 бит/сек
Count of elements : 1051
Размер потока : 28,6 Кбайт (0%)
Заголовок : SDH
Язык : English
Default : Нет
Forced : Нет
Изображение Изображение Изображение Изображение

Как скачать!

  • Похожие темы
    Ответы
    Просмотры
    Последнее сообщение

Вернуться в «Фильмы 4K»

Кто сейчас на конференции

Сейчас этот форум просматривают: нет зарегистрированных пользователей и 1 гость