Ложь / The Lie (2020) WEB-DLRip 720p | P скачать бесплатно торрент

Фильмы высокого разрешения в формате HD
Торрент [ Статус: Проверен ] Скачать Сидеров Личеров Размер
Lozh.2020.WEB-DLRip.720p.torrent
607 14 2.07 ГБ
Аватара пользователя
admin
Администратор
Администратор
Сообщения: 11117
Зарегистрирован: 13 дек 2013, 01:15
Благодарил (а): 7 раз
Контактная информация:

Ложь / The Lie (2020) WEB-DLRip 720p | P

Сообщение admin » 11 окт 2020, 14:06

Год выпуска: 2020
Жанр: Триллер, драма, детектив
Выпущено: США, Blumhouse Productions, MAD DOG FILMS
Режиссер: Вина Суд

В ролях: Питер Сарсгаард, Джои Кинг, Кэс Анвар, Даниэль Кайнд, Мирей Инос, Девери Джейкобс, Патти Ким, Николас Ли[/size]

О фильме:
Музыкант Джей соглашается отвезти свою пятнадцатилетнюю дочь Кайлу в танцевальный лагерь по просьбе её матери Ребекки, юристки из высшего общества. Разведённые родители практически не общаются, что сказывается на их дочери, которая страдает от низкой самооценки и недостатка внимания. По дороге в лагерь Кайла замечает на автобусной остановке одинокую одноклассницу Бритни и убеждает отца подбросить её до пункта назначения. Однако встреча подруг оборачивается катастрофой, а позже Кайла признаётся родителям, что виновна в пропаже Бритни...

Изображение Изображение

Страна: США
Студия: Blumhouse Productions, MAD DOG FILMS
Продолжительность: 01:35:03
Перевод: Профессиональный многоголосый (HDRezka Studio)
Субтитры: Русские (форс., полные), английские

Файл
Формат: Matroska
Качество: WEB-DLRip 720p
Видео: 1280x532 at 23.976 fps, x264@L4.1, ~2664 kbps, 0.163 bpp
Аудио: AC3, 6 ch, ~448 kbps - | Русский | -
Формат субтитров: softsub (SRT)



x264 [info]: frame I:906 Avg QP:15.39 size: 74224
x264 [info]: frame P:27182 Avg QP:16.85 size: 29424
x264 [info]: frame B:108660 Avg QP:18.17 size: 9499

General
Format : Matroska
Format version : Version 4
File size : 2.07 GiB
Duration : 1 h 35 min
Overall bit rate : 3 114 kb/s
Movie name : Ложь.(2020).WEB-DLRip.720p.[-=DoMiNo=-]
Encoded date : UTC 2020-10-10 10:52:03
Writing application : mkvmerge v8.3.0 ('Over the Horizon') 64bit
Writing library : libebml v1.3.1 + libmatroska v1.4.2
Cover : Yes
Attachments : Cover.jpg / Cover 2.jpg

Video
ID : 1
Format : AVC
Format/Info : Advanced Video Codec
Format profile : High@L4.1
Format settings : CABAC / 9 Ref Frames
Format settings, CABAC : Yes
Format settings, Reference : 9 frames
Codec ID : V_MPEG4/ISO/AVC
Duration : 1 h 35 min
Bit rate : 2 664 kb/s
Width : 1 280 pixels
Height : 532 pixels
Display aspect ratio : 2.40:1
Frame rate mode : Constant
Frame rate : 23.976 (24000/1001) FPS
Color space : YUV
Chroma subsampling : 4:2:0
Bit depth : 8 bits
Scan type : Progressive
Bits/(Pixel*Frame) : 0.163
Stream size : 1.77 GiB (86%)
Title : -=DoMiNo=-
Writing library : x264 core 161 r3018 db0d417
Encoding settings : cabac=1 / ref=9 / deblock=1:-2:-2 / analyse=0x3:0x133 / me=umh / subme=10 / psy=1 / psy_rd=1.00:0.20 / mixed_ref=1 / me_range=32 / chroma_me=1 / trellis=2 / 8x8dct=1 / cqm=0 / deadzone=21,11 / fast_pskip=1 / chroma_qp_offset=-3 / threads=6 / lookahead_threads=1 / sliced_threads=0 / nr=0 / decimate=0 / interlaced=0 / bluray_compat=0 / constrained_intra=0 / bframes=9 / b_pyramid=2 / b_adapt=2 / b_bias=0 / direct=1 / weightb=1 / open_gop=0 / weightp=2 / keyint=250 / keyint_min=23 / scenecut=40 / intra_refresh=0 / rc_lookahead=60 / rc=crf / mbtree=0 / crf=19.0 / qcomp=0.60 / qpmin=0 / qpmax=69 / qpstep=4 / vbv_maxrate=50000 / vbv_bufsize=62500 / crf_max=0.0 / nal_hrd=none / filler=0 / ip_ratio=1.40 / pb_ratio=1.30 / aq=1:1.00
Language : English
Default : Yes
Forced : No
Color range : Limited
Color primaries : BT.709
Transfer characteristics : BT.709
Matrix coefficients : BT.709

Audio
ID : 2
Format : AC-3
Format/Info : Audio Coding 3
Commercial name : Dolby Digital
Codec ID : A_AC3
Duration : 1 h 35 min
Bit rate mode : Constant
Bit rate : 448 kb/s
Channel(s) : 6 channels
Channel layout : L R C LFE Ls Rs
Sampling rate : 48.0 kHz
Frame rate : 31.250 FPS (1536 SPF)
Compression mode : Lossy
Stream size : 305 MiB (14%)
Title : MVO [HDRezka Studio]
Language : Russian
Service kind : Complete Main
Default : Yes
Forced : No

Text #1
ID : 3
Format : UTF-8
Codec ID : S_TEXT/UTF8
Codec ID/Info : UTF-8 Plain Text
Duration : 2 s 420 ms
Bit rate : 128 b/s
Count of elements : 1
Stream size : 39.0 Bytes (0%)
Title : Forced
Language : Russian
Default : Yes
Forced : No

Text #2
ID : 4
Format : UTF-8
Codec ID : S_TEXT/UTF8
Codec ID/Info : UTF-8 Plain Text
Duration : 1 h 34 min
Bit rate : 59 b/s
Count of elements : 890
Stream size : 41.0 KiB (0%)
Title : Full
Language : Russian
Default : No
Forced : No

Text #3
ID : 5
Format : UTF-8
Codec ID : S_TEXT/UTF8
Codec ID/Info : UTF-8 Plain Text
Duration : 1 h 34 min
Bit rate : 50 b/s
Count of elements : 1221
Stream size : 34.6 KiB (0%)
Title : English
Language : English
Default : No
Forced : No
Изображение Изображение Изображение Изображение Изображение Изображение Изображение Изображение Изображение Изображение Изображение Изображение

Как скачать!

  • Похожие темы
    Ответы
    Просмотры
    Последнее сообщение

Вернуться в «Фильмы HD»

Кто сейчас на конференции

Сейчас этот форум просматривают: Yandex [Bot] и 2 гостя